<?xml version="1.0" standalone="no"?>
<!DOCTYPE svg PUBLIC "-//W3C//DTD SVG 1.1//EN" "http://www.w3.org/Graphics/SVG/1.1/DTD/svg11.dtd" >
<svg xmlns="http://www.w3.org/2000/svg">
<metadata>Generated by IcoMoon</metadata>
<defs>
<font id="eto" horiz-adv-x="1024">
<font-face units-per-em="1024" ascent="960" descent="-64" />
<missing-glyph horiz-adv-x="1024" />
<glyph unicode="&#x20;" horiz-adv-x="512" d="" />
<glyph unicode="&#xe900;" glyph-name="app-notification" horiz-adv-x="1132" d="M997.053 151.579h-862.316c-75.453 0-134.737 59.284-134.737 134.737v538.947c0 75.453 59.284 134.737 134.737 134.737h862.316c75.453 0 134.737-59.284 134.737-134.737v-538.947c0-75.453-59.284-134.737-134.737-134.737zM134.737 906.105c-43.116 0-80.842-37.726-80.842-80.842v-538.947c0-43.116 37.726-80.842 80.842-80.842h862.316c43.116 0 80.842 37.726 80.842 80.842v538.947c0 43.116-37.726 80.842-80.842 80.842h-862.316zM781.474-64h-431.158c-16.168 0-26.947 10.779-26.947 26.947s10.779 26.947 26.947 26.947h431.158c16.168 0 26.947-10.779 26.947-26.947s-10.779-26.947-26.947-26.947zM565.895-64c-16.168 0-26.947 10.779-26.947 26.947v215.579c0 16.168 10.779 26.947 26.947 26.947s26.947-10.779 26.947-26.947v-215.579c0-16.168-10.779-26.947-26.947-26.947zM772.204 397.285c0 5.389 0 16.168-5.389 16.168-21.558 21.558-37.726 53.895-37.726 86.232v86.232c0 91.621-70.063 167.074-161.684 167.074s-167.074-75.453-167.074-167.074v-91.621c0-32.337-16.168-59.284-37.726-80.842-5.389-5.389-5.389-10.779 0-21.558 5.389-5.389 5.389-5.389 10.779-5.389h382.653c10.779 0 16.168 5.389 16.168 10.779zM405.72 418.843c16.168 21.558 21.558 48.505 21.558 75.453v91.621c0 75.453 64.674 134.737 134.737 129.347 70.063 0 129.347-59.284 129.347-129.347v-86.232c0-26.947 5.389-59.284 21.558-80.842h-307.2zM373.383 381.117c-5.389 0-10.779 5.389-16.168 10.779s-5.389 10.779-5.389 16.168c0 5.389 5.389 10.779 5.389 10.779 21.558 21.558 32.337 48.505 32.337 75.453v91.621c0 97.011 75.453 172.463 172.463 172.463s172.463-75.453 172.463-172.463v-86.232c0-32.337 10.779-59.284 37.726-80.842 5.389-5.389 10.779-16.168 5.389-21.558 0-10.779-10.779-16.168-21.558-16.168 0 0 0 0 0 0h-382.653c0 0 0 0 0 0zM567.404 747.601c-86.232 0-161.684-70.063-161.684-161.684v-91.621c0-32.337-16.168-59.284-37.726-86.232 0 0-5.389-5.389-5.389-5.389 0-5.389 0-5.389 0-5.389s5.389-5.389 10.779-5.389c0 0 0 0 0 0h382.653c0 0 0 0 0 0 5.389 0 10.779 5.389 10.779 5.389v0c0 5.389 0 10.779-5.389 10.779-26.947 21.558-37.726 53.895-37.726 91.621v86.232c0 91.621-70.063 161.684-156.295 161.684zM400.33 413.453l5.389 10.779c16.168 21.558 21.558 48.505 21.558 75.453v86.232c0 37.726 16.168 70.063 43.116 97.011s59.284 37.726 97.011 37.726c0 0 0 0 5.389 0 75.453 0 134.737-59.284 134.737-134.737v-86.232c0-26.947 5.389-53.895 21.558-80.842l5.389-5.389h-334.147zM567.404 709.875c-37.726 0-64.674-10.779-91.621-32.337s-37.726-53.895-37.726-91.621v-91.621c0-26.947-5.389-48.505-21.558-70.063h296.421c-10.779 26.947-21.558 48.505-21.558 75.453v86.232c0 70.063-53.895 123.958-123.958 123.958 0 0 0 0 0 0zM529.677 359.559c-10.779 0-16.168-5.389-16.168-16.168s5.389-16.168 16.168-16.168h70.063c10.779 0 16.168 5.389 16.168 16.168s-5.389 16.168-16.168 16.168h-70.063zM599.741 321.832h-70.063c-10.779 0-21.558 10.779-21.558 21.558s10.779 21.558 21.558 21.558h70.063c10.779 0 21.558-10.779 21.558-21.558s-5.389-21.558-21.558-21.558zM529.677 354.169c-5.389 0-10.779-5.389-10.779-10.779s5.389-10.779 10.779-10.779h70.063c5.389 0 10.779 5.389 10.779 10.779s-5.389 10.779-10.779 10.779h-70.063z" />
<glyph unicode="&#xe901;" glyph-name="thumbs-down-fill" horiz-adv-x="1111" d="M615.253-64c15.693 0.017 29.399 8.502 36.798 21.132l0.109 0.201 197.077 341.333c3.608 6.116 5.746 13.474 5.76 21.329v597.337c0 23.564-19.103 42.667-42.667 42.667v0h-568.277c-34.84-0.364-66.042-15.639-87.579-39.735l-0.101-0.115c-18.154-21.393-31.65-47.325-38.567-75.83l-0.26-1.269-114.347-426.667c-1.757-7.183-2.764-15.429-2.764-23.91 0-31.191 13.628-59.199 35.254-78.395l0.108-0.094c24.539-22.818 57.545-36.821 93.822-36.821 0.016 0 0.031 0 0.047 0h357.587v-213.333c0.385-70.537 57.463-127.615 127.963-128h0.037zM1068.373 320c23.564 0 42.667 19.103 42.667 42.667v0 512c0 23.564-19.103 42.667-42.667 42.667v0h-128v-597.333z" />
<glyph unicode="&#xe902;" glyph-name="thumbs-up-fill" horiz-adv-x="1111" d="M495.787 960c-15.693-0.017-29.399-8.502-36.798-21.132l-0.109-0.201-197.077-341.333c-3.608-6.116-5.746-13.474-5.76-21.329v-597.337c0-23.564 19.103-42.667 42.667-42.667v0h568.277c34.84 0.364 66.042 15.639 87.579 39.735l0.101 0.115c18.154 21.393 31.65 47.325 38.567 75.83l0.26 1.269 114.347 426.667c1.757 7.183 2.764 15.429 2.764 23.91 0 31.191-13.628 59.199-35.254 78.395l-0.108 0.094c-24.539 22.818-57.545 36.821-93.822 36.821-0.016 0-0.031 0-0.047 0h-357.587v213.163c-0.385 70.537-57.463 127.615-127.963 128h-0.037zM42.667 576c-23.564 0-42.667-19.103-42.667-42.667v0-512c0-23.564 19.103-42.667 42.667-42.667v0h128v597.333z" />
<glyph unicode="&#xe903;" glyph-name="email" d="M934 838h-844c-49.564 0-90-40.392-90-90v-600c0-49.44 40.256-90 90-90h844c49.44 0 90 40.256 90 90v600c0 49.44-40.256 90-90 90zM921.572 778l-407.664-407.666-411.19 407.666h818.854zM60 160.424v575.438l288.958-286.48-288.958-288.958zM102.426 118l289.14 289.14 101.314-100.444c11.728-11.628 30.654-11.59 42.334 0.092l98.786 98.786 287.574-287.574h-819.148zM964 160.426l-287.574 287.574 287.574 287.576v-575.15z" />
<glyph unicode="&#xe904;" glyph-name="resend" d="M964.288 507.776h-243.2c-12.8 0-25.6 12.8-25.6 25.6s6.4 25.6 25.6 25.6h224v217.6c0 12.8 12.8 25.6 25.6 25.6s25.6-12.8 25.6-25.6v-249.6c-6.4-12.8-19.2-19.2-32-19.2zM55.488 91.776c-12.8 0-25.6 12.8-25.6 25.6v249.6c0 12.8 12.8 25.6 25.6 25.6h249.6c12.8 0 25.6-12.8 25.6-25.6s-12.8-25.6-25.6-25.6h-224v-224c0-12.8-6.4-25.6-25.6-25.6zM509.888 53.376c-108.8 0-204.8 38.4-281.6 115.2l-192 179.2c-12.8 12.8-12.8 25.6 0 38.4s25.6 12.8 38.4 0l192-179.2c64-64 153.6-102.4 243.2-102.4 0 0 0 0 0 0 89.6 0 179.2 38.4 243.2 102.4 38.4 38.4 64 83.2 83.2 128 6.4 12.8 19.2 19.2 32 12.8s19.2-19.2 12.8-32c-19.2-57.6-51.2-108.8-96-147.2-70.4-76.8-166.4-115.2-275.2-115.2 0 0 0 0 0 0zM964.288 507.776c-6.4 0-12.8 0-19.2 6.4l-192 179.2c-38.4 38.4-83.2 64-128 83.2-179.2 64-377.6-32-441.6-211.2 0-12.8-19.2-25.6-32-19.2s-19.2 19.2-12.8 32c70.4 211.2 300.8 320 505.6 243.2 57.6-19.2 108.8-51.2 147.2-96l192-179.2c12.8-12.8 12.8-25.6 0-38.4-6.4 0-12.8 0-19.2 0z" />
<glyph unicode="&#xe905;" glyph-name="slider" horiz-adv-x="1233" d="M195.951 517.531c18.963 0 37.926 18.963 37.926 37.926v366.617c0 18.963-18.963 37.926-37.926 37.926s-37.926-18.963-37.926-37.926v-366.617c0-25.284 18.963-37.926 37.926-37.926zM619.457 485.926c-18.963 0-37.926-18.963-37.926-37.926v-474.074c0-18.963 18.963-37.926 37.926-37.926s37.926 18.963 37.926 37.926v474.074c0 18.963-18.963 37.926-37.926 37.926zM1036.642 410.074c18.963 0 37.926 18.963 37.926 37.926v474.074c0 18.963-12.642 37.926-37.926 37.926s-37.926-18.963-37.926-37.926v-474.074c0-18.963 18.963-37.926 37.926-37.926zM353.975 378.469h-316.049c-18.963 0-37.926-12.642-37.926-37.926s18.963-37.926 37.926-37.926h120.099v-328.691c0-18.963 18.963-37.926 37.926-37.926s37.926 18.963 37.926 37.926v328.691h120.099c18.963 0 37.926 18.963 37.926 37.926s-18.963 37.926-37.926 37.926zM777.481 694.519h-120.099v227.556c0 18.963-18.963 37.926-37.926 37.926s-37.926-18.963-37.926-37.926v-227.556h-120.099c-18.963 0-37.926-18.963-37.926-37.926s18.963-37.926 37.926-37.926h316.049c18.963 0 37.926 18.963 37.926 37.926s-18.963 37.926-37.926 37.926zM1194.667 277.333h-316.049c-18.963 0-37.926-18.963-37.926-37.926s18.963-37.926 37.926-37.926h120.099v-227.556c0-18.963 18.963-37.926 37.926-37.926s37.926 18.963 37.926 37.926v227.556h120.099c18.963 0 37.926 18.963 37.926 37.926s-12.642 37.926-37.926 37.926z" />
<glyph unicode="&#xe906;" glyph-name="file-edit" d="M867.686 764.058l-167.731 167.731c-17.361 17.306-41.316 28.006-67.771 28.006-0.006 0-0.013 0-0.019 0h-408.114c-52.949-0.174-95.826-43.051-96-95.983v-831.812c0-0.061 0-0.133 0-0.205 0-53.019 42.981-96 96-96 0 0 0 0 0 0h575.846c0.046 0 0.1 0 0.154 0 53.019 0 96 42.981 96 96 0 0.072 0 0.144 0 0.216v-0.011 664.064c-0.049 26.553-10.82 50.582-28.212 67.994l0.001-0.001zM822.477 718.643c4.017-3.962 6.971-8.993 8.401-14.631l0.047-0.217h-190.874v191.027c5.832-1.471 10.843-4.406 14.794-8.394l0.002-0.002zM799.898 0h-575.846c-17.65 0.058-31.942 14.35-32 31.994v831.801c0.058 17.65 14.35 31.942 31.994 32h351.904v-207.923c0-0.030 0-0.066 0-0.103 0-26.439 21.433-47.872 47.872-47.872 0.036 0 0.072 0 0.108 0h207.968v-607.898c-0.058-17.65-14.35-31.942-31.994-32h-0.006zM566.374 465.51l59.187-59.187c1.673-1.622 2.711-3.89 2.711-6.4s-1.038-4.778-2.709-6.398l-224.77-224.77-60.211-8.602c-0.761-0.113-1.64-0.178-2.533-0.178-10.010 0-18.125 8.115-18.125 18.125 0 0.894 0.065 1.772 0.19 2.631l-0.012-0.098 8.602 60.211 224.768 224.768c1.622 1.675 3.891 2.714 6.402 2.714 2.561 0 4.87-1.081 6.496-2.812l0.004-0.005zM695.142 463.104l-32.819-32.768c-1.622-1.673-3.89-2.711-6.4-2.711s-4.778 1.038-6.398 2.709l-59.189 59.138c-1.673 1.622-2.711 3.89-2.711 6.4s1.038 4.778 2.709 6.398l0.002 0.002 32.819 32.563c5.405 5.468 12.905 8.855 21.197 8.855s15.792-3.386 21.194-8.852l29.597-29.597c5.376-5.39 8.7-12.828 8.7-21.043s-3.324-15.653-8.701-21.044l0.001 0.001z" />
<glyph unicode="&#xe907;" glyph-name="location-map" d="M995.533 618.65c-3.848-0.030-7.504-0.818-10.837-2.22l0.188 0.070-302.080-111.667-18.33 6.4c37.99 48.081 64.636 106.82 74.93 171.022l0.282 2.136c-2.473 121.348-101.428 218.773-223.137 218.773-1.599 0-3.195-0.017-4.787-0.050l0.237 0.004c-1.279 0.026-2.786 0.041-4.296 0.041-121.71 0-220.676-97.381-223.233-218.478l-0.004-0.238c1.492-26.505 8.152-51.119 18.982-73.325l-0.499 1.133-267.11-93.133c-21.168-8.579-35.829-28.97-35.84-52.786v-444.98c0-0.043 0-0.094 0-0.145 0-15.637 12.676-28.314 28.314-28.314 3.897 0 7.611 0.787 10.99 2.212l-0.186-0.070 302.080 111.667 305.766-107.93c10.775-3.708 23.191-5.848 36.106-5.848 12.51 0 24.552 2.008 35.819 5.72l-0.808-0.231 270.080 94.054c21.173 8.551 35.84 28.934 35.84 52.744 0 0.051 0 0.103 0 0.154v-0.008 444.877c0 0 0 0 0 0 0 15.694-12.722 28.416-28.416 28.416-0.018 0-0.036 0-0.054 0h0.003zM312.883 156.826l-256-94.566-2.458 403.354 258.458 89.754zM512 846.234c1.225 0.032 2.667 0.051 4.113 0.051 90.339 0 163.884-71.901 166.531-161.599l0.006-0.244c0-48.026-67.738-158.054-170.65-278.733-102.912 120.678-170.65 230.758-170.65 278.733 2.653 89.942 76.198 161.843 166.537 161.843 1.446 0 2.888-0.018 4.326-0.055l-0.213 0.004zM654.234 56.525l-284.467 100.454v339.405c40.361-57.141 79.867-106.804 121.923-154.15l-1.552 1.779c5.395-6.010 13.189-9.774 21.862-9.774s16.467 3.764 21.838 9.747l0.024 0.027c22.733 25.6 59.904 69.53 96.512 118.938l23.808-8.346zM711.117 56.166v398.592l256 94.566 2.304-403.354zM554.65 675.686c-0.087 23.489-19.149 42.496-42.649 42.496-23.555 0-42.65-19.095-42.65-42.65s19.095-42.649 42.649-42.65v0c23.561 0.029 42.65 19.136 42.65 42.701v0z" />
<glyph unicode="&#xe908;" glyph-name="news-edit" d="M994.15 716.8h-226.15v179.2c0.005 0.2 0.008 0.437 0.008 0.673 0 16.118-13.066 29.184-29.184 29.184-0.237 0-0.473-0.003-0.708-0.008l0.035 0.001h-708.301c-0.2 0.005-0.437 0.008-0.673 0.008-16.118 0-29.184-13.066-29.184-29.184 0-0.237 0.003-0.473 0.008-0.708l-0.001 0.035v-776.55c1.026-82.068 67.282-148.324 149.253-149.349l0.098-0.001h725.299c82.068 1.026 148.324 67.282 149.349 149.253l0.001 0.098v567.501c0.005 0.2 0.008 0.437 0.008 0.673 0 16.118-13.066 29.184-29.184 29.184-0.237 0-0.473-0.003-0.708-0.008l0.035 0.001zM149.35 29.85c-0.633-0.016-1.378-0.026-2.125-0.026-48.325 0-87.501 39.175-87.501 87.501 0 0.747 0.009 1.492 0.028 2.235l-0.002-0.11v746.701h644.25v-759.501c3.799-29.111 14.421-55.182 30.203-77.321l-0.353 0.521zM964.301 119.45c0.016-0.633 0.026-1.378 0.026-2.125 0-48.325-39.175-87.501-87.501-87.501-0.747 0-1.492 0.009-2.235 0.028l0.11-0.002h-17.101c-0.633-0.016-1.378-0.026-2.125-0.026-48.325 0-87.501 39.175-87.501 87.501 0 0.747 0.009 1.492 0.028 2.235l-0.002-0.11v537.6h196.25zM439.45 563.2l59.75-59.75c1.957-1.472 3.209-3.79 3.209-6.4s-1.252-4.928-3.188-6.385l-0.020-0.015-226.15-226.099-59.75-8.55c-0.363-0.023-0.787-0.037-1.214-0.037-11.141 0-20.173 9.032-20.173 20.173 0 0.427 0.013 0.851 0.039 1.272l-0.003-0.058 8.55 59.75 226.15 226.099zM567.45 558.95l-34.15-34.15c-1.472-1.957-3.79-3.209-6.4-3.209s-4.928 1.252-6.385 3.188l-0.015 0.020-59.699 59.75c-1.957 1.472-3.209 3.79-3.209 6.4s1.252 4.928 3.188 6.385l0.020 0.015 34.15 34.15c5.248 5.891 12.855 9.583 21.325 9.583s16.077-3.692 21.3-9.554l0.025-0.028 29.85-29.901c5.891-5.248 9.583-12.855 9.583-21.325s-3.692-16.077-9.554-21.3l-0.028-0.025z" />
<glyph unicode="&#xe909;" glyph-name="users" horiz-adv-x="1229" d="M921.6 448c101.797 0 184.32 82.523 184.32 184.32s-82.523 184.32-184.32 184.32c-101.797 0-184.32-82.523-184.32-184.32v0c0-101.797 82.523-184.32 184.32-184.32v0zM921.6 755.2c67.865 0 122.88-55.015 122.88-122.88s-55.015-122.88-122.88-122.88c-67.865 0-122.88 55.015-122.88 122.88v0c0 67.865 55.015 122.88 122.88 122.88v0zM368.64 448c118.763 0 215.040 96.277 215.040 215.040s-96.277 215.040-215.040 215.040c-118.763 0-215.040-96.277-215.040-215.040v0c0-118.763 96.277-215.040 215.040-215.040v0zM368.64 816.64c84.831 0 153.6-68.769 153.6-153.6s-68.769-153.6-153.6-153.6c-84.831 0-153.6 68.769-153.6 153.6v0c0 84.831 68.769 153.6 153.6 153.6v0zM522.24 409.6c-64.102 0-80.077-23.040-153.6-23.040s-89.651 23.040-153.6 23.040c-1.238 0.026-2.698 0.041-4.161 0.041-71.362 0-134.474-35.325-172.804-89.442l-0.443-0.659c-23.568-34.527-37.632-77.172-37.632-123.102 0-0.12 0-0.24 0-0.36v0.019-86.016c0-50.899 41.261-92.16 92.16-92.16v0h552.96c50.899 0 92.16 41.261 92.16 92.16v86.016c0 0.101 0 0.221 0 0.341 0 45.93-14.065 88.575-38.122 123.864l0.49-0.762c-38.773 54.777-101.884 90.102-173.247 90.102-1.463 0-2.923-0.015-4.379-0.044l0.218 0.003zM675.84 110.080c0-16.966-13.754-30.72-30.72-30.72h-552.96c-16.966 0-30.72 13.754-30.72 30.72v0 86.016c0 0.051 0 0.112 0 0.173 0 33.161 10.121 63.959 27.442 89.472l-0.357-0.558c27.587 38.347 72.086 63.024 122.35 63.024 1.339 0 2.673-0.018 4.004-0.052l-0.197 0.004c52.634 0 71.424-23.040 154.010-23.040s101.376 23.040 153.6 23.040c1.134 0.031 2.468 0.048 3.807 0.048 50.264 0 94.764-24.678 122.045-62.578l0.305-0.446c16.964-24.956 27.085-55.753 27.085-88.915 0-0.061 0-0.122 0-0.183v0.009-86.016zM1197.517 330.701c-32.34 45.652-84.958 75.088-144.45 75.088-1.129 0-2.255-0.011-3.379-0.032l0.168 0.002c-53.35 0-66.816-19.2-128.256-19.2s-74.854 19.2-128 19.2c-26.485-0.162-51.612-5.798-74.363-15.832l1.199 0.472c15.529-14.433 28.497-31.355 38.324-50.178l0.486-1.022c10.261 3.135 22.067 4.998 34.29 5.119l0.065 0.001c34.579-7.473 78.247-14.245 122.584-18.754l5.416-0.446c49.828 4.943 93.586 11.715 136.555 20.642l-8.299-1.442c0.961 0.029 2.092 0.045 3.227 0.045 38.404 0 72.412-18.817 93.309-47.734l0.232-0.337c13.114-19.177 20.941-42.872 20.941-68.395 0-0.057 0-0.114 0-0.17v0.009-71.578c0-8.483-6.877-15.36-15.36-15.36v0h-353.485c0.336-5.098 0.528-11.052 0.528-17.050 0-15.675-1.309-31.045-3.825-46.006l0.225 1.616h356.352c42.415 0 76.8 34.385 76.8 76.8v0 71.68c0 0.117 0 0.256 0 0.395 0 38.225-11.691 73.72-31.693 103.103l0.409-0.637z" />
<glyph unicode="&#xe90a;" glyph-name="user-tie" d="M512 448c141.385 0 256 114.615 256 256s-114.615 256-256 256c-141.385 0-256-114.615-256-256v0c0-141.385 114.615-256 256-256v0zM512 896c106.039 0 192-85.961 192-192s-85.961-192-192-192c-106.039 0-192 85.961-192 192v0c0.175 105.969 86.032 191.826 191.983 192h0.017zM695.808 351.59l-79.411-275.61-67.789 203.418 50.022 50.022c5.762 5.786 9.325 13.767 9.325 22.579 0 17.657-14.301 31.974-31.952 32h-128.002c-0.008 0-0.018 0-0.027 0-17.645 0-31.949-14.304-31.949-31.949 0-8.842 3.592-16.845 9.396-22.63l50.023-50.023-67.84-203.418-79.411 275.405c-146.374-2.306-264.152-121.485-264.192-268.182v-51.204c0-53.019 42.981-96 96-96v0h704c53.019 0 96 42.981 96 96v0 51.2c-0.095 146.721-117.816 265.914-263.96 268.387l-0.232 0.003zM160 0c-17.65 0.058-31.942 14.35-32 31.994v51.206c0.507 94.615 64.87 174.058 152.163 197.458l1.437 0.328 81.408-280.986zM449.792 0l62.208 186.88 62.208-186.88h-124.416zM896 32c-0.058-17.65-14.35-31.942-31.994-32h-203.014l80.998 280.986c88.73-23.728 153.094-103.171 153.6-197.728v-51.257z" />
<glyph unicode="&#xe90b;" glyph-name="angle-down" d="M512 288c-0.009 0-0.020 0-0.030 0-8.825 0-16.812 3.588-22.582 9.385l-256.001 256.001c-5.321 5.699-8.588 13.376-8.588 21.815 0 17.673 14.327 32 32 32 8.44 0 16.116-3.267 21.834-8.606l-0.019 0.017 233.387-233.387 233.387 233.387c5.858 6.274 14.178 10.185 23.412 10.185 17.673 0 32-14.327 32-32 0-9.234-3.911-17.554-10.166-23.394l-0.019-0.017-256-256c-5.771-5.798-13.758-9.387-22.583-9.387-0.011 0-0.021 0-0.032 0h0.002z" />
<glyph unicode="&#xe90c;" glyph-name="angle-left" d="M352 448c0 0.009 0 0.020 0 0.030 0 8.825 3.588 16.812 9.385 22.582l256.001 256.001c5.699 5.321 13.376 8.588 21.815 8.588 17.673 0 32-14.327 32-32 0-8.44-3.267-16.116-8.606-21.834l0.017 0.019-233.365-233.387 233.387-233.387c5.416-5.72 8.747-13.463 8.747-21.984 0-17.673-14.327-32-32-32-8.526 0-16.274 3.335-22.009 8.771l-255.986 255.986c-5.798 5.771-9.387 13.758-9.387 22.583 0 0.011 0 0.021 0 0.032v-0.002z" />
<glyph unicode="&#xe90d;" glyph-name="angle-right" d="M672 448c0-0.009 0-0.020 0-0.030 0-8.825-3.588-16.812-9.385-22.582l-256.001-256.001c-5.699-5.321-13.376-8.588-21.815-8.588-17.673 0-32 14.327-32 32 0 8.44 3.267 16.116 8.606 21.834l-0.017-0.019 233.387 233.387-233.387 233.387c-5.321 5.699-8.588 13.376-8.588 21.815 0 17.673 14.327 32 32 32 8.44 0 16.116-3.267 21.834-8.606l-0.019 0.017 256-256c5.798-5.771 9.387-13.758 9.387-22.583 0-0.011 0-0.021 0-0.032v0.002z" />
<glyph unicode="&#xe90e;" glyph-name="angle-up" d="M512 608c0.009 0 0.020 0 0.030 0 8.825 0 16.812-3.588 22.582-9.385l256.001-256.001c6.274-5.858 10.185-14.178 10.185-23.412 0-17.673-14.327-32-32-32-9.234 0-17.554 3.911-23.394 10.166l-0.017 0.019-233.387 233.365-233.387-233.365c-5.699-5.321-13.376-8.588-21.815-8.588-17.673 0-32 14.327-32 32 0 8.44 3.267 16.116 8.606 21.834l-0.017-0.019 256 256c5.771 5.798 13.758 9.387 22.583 9.387 0.011 0 0.021 0 0.032 0h-0.002z" />
<glyph unicode="&#xe90f;" glyph-name="bell" d="M896 202.581h-768c-17.672 0.002-31.997 14.328-31.997 32 0 11.056 5.607 20.803 14.133 26.552l0.114 0.072c0.853 0.585 113.749 82.999 113.749 357.376 0 159.058 128.942 288 288 288s288-128.942 288-288v0c0-274.377 112.917-356.791 114.061-357.585 8.352-5.909 13.739-15.53 13.739-26.409 0-3.409-0.529-6.694-1.509-9.779l0.063 0.228c-4.152-13.075-16.156-22.394-30.346-22.455h-0.007zM199.936 266.581h624.128c-40.23 58.581-88.064 167.125-88.064 352 0 123.712-100.288 224-224 224s-224-100.288-224-224v0c0-184.875-47.834-293.414-88.064-352zM511.791-10.543c-43.020 0.046-80.609 23.257-100.971 57.828l-0.299 0.548c-2.725 4.61-4.335 10.158-4.335 16.083 0 17.674 14.328 32.002 32.002 32.002 11.75 0 22.020-6.332 27.586-15.77l0.081-0.149c9.402-16.015 26.539-26.597 46.148-26.597 19.591 0 36.715 10.563 45.987 26.305l0.136 0.249c5.642 9.609 15.924 15.958 27.689 15.958 17.673 0 32-14.327 32-32 0-5.908-1.601-11.443-4.393-16.193l0.082 0.15c-20.71-35.179-58.39-58.415-101.497-58.415-0.076 0-0.152 0-0.227 0h0.012z" />
<glyph unicode="&#xe910;" glyph-name="building" d="M448 746.001v-80c0-13.255-10.745-24-24-24v0h-80c-13.255 0-24 10.745-24 24v0 80c0 13.255 10.745 24 24 24v0h80c13.255 0 24-10.745 24-24v0zM680 770.001h-80c-13.255 0-24-10.745-24-24v0-80c0-13.255 10.745-24 24-24v0h80c13.255 0 24 10.745 24 24v0 80c0 13.255-10.745 24-24 24v0zM424 578.001h-80c-13.255 0-24-10.745-24-24v0-80c0-13.255 10.745-24 24-24v0h80c13.255 0 24 10.745 24 24v0 80c0 13.255-10.745 24-24 24v0zM680 578.001h-80c-13.255 0-24-10.745-24-24v0-80c0-13.255 10.745-24 24-24v0h80c13.255 0 24 10.745 24 24v0 80c0 13.255-10.745 24-24 24v0zM424 386.001h-80c-13.255 0-24-10.745-24-24v0-80c0-13.255 10.745-24 24-24v0h80c13.255 0 24 10.745 24 24v0 80c0 13.255-10.745 24-24 24v0zM680 386.001h-80c-13.255 0-24-10.745-24-24v0-80c0-13.255 10.745-24 24-24v0h80c13.255 0 24 10.745 24 24v0 80c0 13.255-10.745 24-24 24v0zM960-24v-40h-896v40c0 13.255 10.745 24 24 24v0h40v912c0 26.51 21.49 48 48 48v0h672c26.51 0 48-21.49 48-48v0-912h40c13.255 0 24-10.745 24-24v0zM832 0v896h-640v-896h256v170.001c0 13.255 10.745 24 24 24v0h80c13.255 0 24-10.745 24-24v0-170.001z" />
<glyph unicode="&#xe911;" glyph-name="calendar-alt" d="M864 832h-96v104c-0.041 13.238-10.762 23.959-23.996 24h-16.004c-13.238-0.041-23.959-10.762-24-23.996v-104.004h-384v104c-0.041 13.238-10.762 23.959-23.996 24h-16.004c-13.238-0.041-23.959-10.762-24-23.996v-104.004h-96c-53.014-0.015-95.985-42.987-96-95.999v-704.001c0.015-53.014 42.987-95.985 95.999-96h704.001c53.014 0.015 95.985 42.987 96 95.999v704.001c-0.015 53.014-42.987 95.985-95.999 96h-0.001zM160 768h704c17.652-0.053 31.947-14.348 32-31.995v-96.005h-768v96c0.053 17.652 14.348 31.947 31.995 32h0.005zM864 0h-704c-17.652 0.053-31.947 14.348-32 31.995v544.005h768v-544c-0.053-17.652-14.348-31.947-31.995-32h-0.005zM360 320h-80c-13.238 0.041-23.959 10.762-24 23.996v80.004c0.041 13.238 10.762 23.959 23.996 24h80.004c13.238-0.041 23.959-10.762 24-23.996v-80.004c-0.041-13.238-10.762-23.959-23.996-24h-0.004zM552 320h-80c-13.238 0.041-23.959 10.762-24 23.996v80.004c0.041 13.238 10.762 23.959 23.996 24h80.004c13.238-0.041 23.959-10.762 24-23.996v-80.004c-0.041-13.238-10.762-23.959-23.996-24h-0.004zM744 320h-80c-13.238 0.041-23.959 10.762-24 23.996v80.004c0.041 13.238 10.762 23.959 23.996 24h80.004c13.238-0.041 23.959-10.762 24-23.996v-80.004c-0.041-13.238-10.762-23.959-23.996-24h-0.004zM552 128h-80c-13.238 0.041-23.959 10.762-24 23.996v80.004c0.041 13.238 10.762 23.959 23.996 24h80.004c13.238-0.041 23.959-10.762 24-23.996v-80.004c-0.041-13.238-10.762-23.959-23.996-24h-0.004zM360 128h-80c-13.238 0.041-23.959 10.762-24 23.996v80.004c0.041 13.238 10.762 23.959 23.996 24h80.004c13.238-0.041 23.959-10.762 24-23.996v-80.004c-0.041-13.238-10.762-23.959-23.996-24h-0.004zM744 128h-80c-13.238 0.041-23.959 10.762-24 23.996v80.004c0.041 13.238 10.762 23.959 23.996 24h80.004c13.238-0.041 23.959-10.762 24-23.996v-80.004c-0.041-13.238-10.762-23.959-23.996-24h-0.004z" />
<glyph unicode="&#xe912;" glyph-name="call" d="M830.063-30.46c-3.772 0-7.458 0.124-11.093 0.457-143.885 16.142-273.833 64.673-386.007 138.107l3.36-2.064c-107.53 69.261-196.353 158.11-263.515 262.244l-2.068 3.424c-71.461 109.123-119.943 239.468-135.465 379.75l-0.356 3.96c-0.319 3.247-0.5 7.020-0.5 10.835 0 61.121 46.636 111.35 106.266 117.043l0.475 0.037c3.644 0.29 7.083 0.457 10.5 0.457h128c59.154-0.070 108.147-43.487 116.925-100.192l0.085-0.664c5.672-42.319 15.532-80.539 29.349-116.805l-1.189 3.555c4.709-12.222 7.437-26.363 7.437-41.142 0-32.168-12.925-61.316-33.865-82.536l-36.714-36.736c53.911-86.127 124.611-156.834 208.014-209.162l2.717-1.59 36.625 36.625c21.274 20.986 50.511 33.947 82.775 33.947 14.768 0 28.902-2.715 41.93-7.674l-0.809 0.271c32.575-12.588 70.641-22.434 110.125-27.826l2.685-0.3c57.518-8.199 101.256-57.122 101.256-116.26 0-0.845-0.009-1.689-0.027-2.53l0.002 0.125v-127.667c0-0.112 0.001-0.244 0.001-0.376 0-64.643-52.294-117.072-116.886-117.29h-0.021zM280.478 819.793h-0.521l-133.269-0.209c-27.214-2.688-48.298-25.458-48.298-53.153 0-1.677 0.077-3.335 0.228-4.972l-0.016 0.21c14.786-133.605 59.748-254.317 127.891-358.493l-1.914 3.118c64.189-99.775 146.57-182.19 243.141-244.502l3.17-1.915c100.804-66.164 221.19-111.168 350.772-125.823l3.728-0.343c1.207-0.124 2.897-0.166 4.561-0.166 29.312 0.189 53.001 23.994 53.001 53.332 0 0.074 0 0.148 0 0.221v-0.011 128.913c0.011 0.404 0.017 0.879 0.017 1.356 0 26.828-19.799 49.032-45.582 52.796l-0.289 0.035c-47.309 6.338-90.041 17.394-130.573 32.9l3.947-1.327c-5.556 2.125-11.983 3.356-18.698 3.356-14.652 0-27.934-5.861-37.631-15.367l-54.054-54.075c-5.802-5.786-13.809-9.363-22.651-9.363-5.803 0-11.247 1.541-15.944 4.236l0.156-0.083c-112.423 64.751-203.251 155.579-266.163 264.549l-1.839 3.453c-2.634 4.548-4.189 10.007-4.189 15.828 0 8.839 3.583 16.84 9.377 22.632l54.187 54.208c9.433 9.613 15.255 22.798 15.255 37.342 0 6.734-1.248 13.176-3.525 19.108l0.123-0.365c-14.154 36.683-25.225 79.552-31.287 124.015l-0.338 3.025c-3.971 25.897-26.079 45.505-52.771 45.534h-0.003zM786.931 523.26c-15.494 0.008-28.413 11.027-31.355 25.655l-0.034 0.205c-14.323 72.618-70.631 128.926-142.102 143.060l-1.147 0.189c-14.85 2.972-25.882 15.905-25.882 31.415 0 17.677 14.33 32.007 32.007 32.007 2.167 0 4.283-0.215 6.329-0.626l-0.205 0.034c98.255-19.394 174.441-95.58 193.578-192.282l0.256-1.553c0.373-1.836 0.587-3.946 0.587-6.106 0-15.515-11.029-28.455-25.675-31.406l-0.205-0.035c-1.852-0.357-3.983-0.563-6.162-0.567h-0.004zM957.598 523.716c-16.389 0.027-29.887 12.37-31.734 28.267l-0.014 0.149c-18.22 163.788-147.1 292.533-309.368 310.4l-1.57 0.14c-16.599 1.299-29.577 15.088-29.577 31.908 0 17.673 14.327 32 32 32 1.629 0 3.229-0.122 4.793-0.357l-0.176 0.022c193.627-21.251 345.951-173.397 367.31-365.088l0.169-1.871c0.13-1.083 0.204-2.336 0.204-3.607 0-16.402-12.353-29.918-28.263-31.754l-0.148-0.014c-1.084-0.123-2.348-0.198-3.629-0.205h-0.011z" />
<glyph unicode="&#xe913;" glyph-name="chat" d="M896 960h-768c-70.665-0.068-127.932-57.335-128-127.993v-576.007c0.068-70.665 57.335-127.932 127.993-128h192.007v-168c0-0.020 0-0.044 0-0.068 0-13.217 10.715-23.932 23.932-23.932 0.024 0 0.048 0 0.072 0h-0.004c0.044 0 0.096 0 0.149 0 5.316 0 10.21 1.806 14.102 4.839l249.749 187.162h288c70.665 0.068 127.932 57.335 128 127.993v576.007c-0.068 70.665-57.335 127.932-127.993 128h-0.007zM960 256c-0.106-35.303-28.697-63.894-63.99-64h-309.412l-16.998-12.8-185.6-139.2v152h-256c-35.303 0.106-63.894 28.697-64 63.99v576.010c0.106 35.303 28.697 63.894 63.99 64h768.010c35.303-0.106 63.894-28.697 64-63.99v-0.010zM560 480h-288c-8.826-0.027-15.973-7.174-16-15.997v-32.003c0.027-8.826 7.174-15.973 15.997-16h288.003c8.826 0.027 15.973 7.174 16 15.997v32.003c-0.027 8.826-7.174 15.973-15.997 16h-0.003zM752 672h-480c-8.826-0.027-15.973-7.174-16-15.997v-32.003c0.027-8.826 7.174-15.973 15.997-16h480.003c8.826 0.027 15.973 7.174 16 15.997v32.003c-0.027 8.826-7.174 15.973-15.997 16h-0.003z" />
<glyph unicode="&#xe914;" glyph-name="check" d="M384 181.333c-0.009 0-0.020 0-0.030 0-8.825 0-16.812 3.588-22.582 9.385l-213.334 213.334c-5.321 5.699-8.588 13.376-8.588 21.815 0 17.673 14.327 32 32 32 8.44 0 16.116-3.267 21.834-8.606l-0.019 0.017 190.72-190.699 446.72 446.699c5.858 6.274 14.178 10.185 23.412 10.185 17.673 0 32-14.327 32-32 0-9.234-3.911-17.554-10.166-23.394l-0.019-0.017-469.333-469.333c-5.771-5.798-13.758-9.387-22.583-9.387-0.011 0-0.021 0-0.032 0h0.002z" />
<glyph unicode="&#xe915;" glyph-name="close" d="M256 160c-17.661 0.016-31.972 14.337-31.972 32 0 8.83 3.576 16.824 9.359 22.614v0l512 512c5.858 6.274 14.178 10.185 23.412 10.185 17.673 0 32-14.327 32-32 0-9.234-3.911-17.554-10.166-23.394l-0.019-0.017-512-512c-5.771-5.798-13.758-9.387-22.583-9.387-0.011 0-0.021 0-0.032 0h0.002zM768 160c-0.009 0-0.020 0-0.030 0-8.825 0-16.812 3.588-22.582 9.385l-512.001 512.001c-5.321 5.699-8.588 13.376-8.588 21.815 0 17.673 14.327 32 32 32 8.44 0 16.116-3.267 21.834-8.606l-0.019 0.017 512-512c5.782-5.789 9.359-13.784 9.359-22.613 0-17.663-14.311-31.984-31.97-32h-0.002z" />
<glyph unicode="&#xe916;" glyph-name="comment" d="M560.060 416h-287.962c-8.826-0.027-15.973-7.174-16-15.997v-32.003c0.027-8.826 7.174-15.973 15.997-16h287.965c8.826 0.027 15.973 7.174 16 15.997v32.003c-0.027 8.826-7.174 15.973-15.997 16h-0.003zM752.034 608h-479.936c-8.826-0.027-15.973-7.174-16-15.997v-32.003c0.027-8.826 7.174-15.973 15.997-16h479.939c8.826 0.027 15.973 7.174 16 15.997v32.003c-0.027 8.826-7.174 15.973-15.997 16h-0.003zM512.068 895.94c-282.765 0-511.936-186.176-511.936-415.94 1.52-98.59 41.621-187.528 105.829-252.628l-0.041 0.042c-23.731-56.356-54.971-104.773-93.157-146.759l0.37 0.412c-8.126-8.581-13.122-20.198-13.122-32.981 0-26.514 21.494-48.009 48.009-48.009 0.035 0 0.071 0 0.106 0h-0.006c104.714 1.557 201.077 36.046 279.526 93.538l-1.36-0.951c55.514-18.131 119.399-28.587 185.726-28.587 0.017 0 0.034 0 0.051 0h-0.003c282.769-0.026 511.94 186.15 511.94 415.923s-229.171 415.94-511.932 415.94zM512.068 128.038c-0.086 0-0.188 0-0.291 0-59.316 0-116.446 9.363-169.991 26.692l3.903-1.092-30.396 9.6-25.997-18.398c-57.444-41.952-127.325-70.315-203.186-79.004l-1.989-0.185c32.569 39.978 60.022 85.93 80.29 135.579l1.301 3.604 14.199 37.393-27.396 29.197c-53.477 53.522-86.985 127.004-88.389 208.31l-0.004 0.266c0 193.975 200.96 351.953 447.94 351.953s447.936-157.982 447.936-351.953-200.96-351.957-447.932-351.957z" />
<glyph unicode="&#xe917;" glyph-name="directions" d="M1005.227 493.359l-447.868 447.868c-11.611 11.603-27.647 18.779-45.359 18.779s-33.748-7.176-45.359-18.779l-447.867-447.867c-11.603-11.611-18.779-27.647-18.779-45.359s7.176-33.748 18.779-45.359l447.867-447.867c11.611-11.604 27.648-18.781 45.361-18.781s33.75 7.177 45.361 18.781l447.863 447.867c11.604 11.611 18.781 27.648 18.781 45.361s-7.177 33.75-18.781 45.361v0zM511.902 0.038l-447.863 448.060 448.060 447.863 447.863-448.060-448.060-447.863zM661.76 512h-245.76c-53.019 0-96-42.981-96-96v0-80c0-0.001 0-0.003 0-0.004 0-8.834 7.162-15.996 15.996-15.996 0.002 0 0.003 0 0.005 0h32c0.001 0 0.003 0 0.004 0 8.834 0 15.996 7.162 15.996 15.996 0 0.002 0 0.003 0 0.005v0 80c0 17.673 14.327 32 32 32v0h245.76l-109.227-100.86c-3.175-2.929-5.156-7.111-5.156-11.755 0-4.197 1.618-8.017 4.265-10.868l-0.009 0.010 21.679-23.467c2.929-3.175 7.111-5.156 11.755-5.156 4.197 0 8.017 1.618 10.868 4.265l-0.010-0.009 156.8 144.721c9.437 8.785 15.321 21.278 15.321 35.145 0 13.924-5.933 26.463-15.408 35.226l-0.032 0.029-156.681 144.64c-2.843 2.633-6.661 4.249-10.857 4.249-4.643 0-8.825-1.978-11.747-5.138l-0.010-0.011-21.679-23.467c-2.633-2.843-4.249-6.661-4.249-10.857 0-4.643 1.978-8.825 5.138-11.747l0.011-0.010z" />
<glyph unicode="&#xe918;" glyph-name="edit" d="M765.419-13.248h-597.333c-64.774 0.068-117.265 52.559-117.333 117.327v597.34c0.068 64.774 52.559 117.265 117.327 117.333h298.673c17.673 0 32-14.327 32-32s-14.327-32-32-32v0h-298.667c-29.443-0.029-53.304-23.89-53.333-53.331v-597.336c0.029-29.443 23.89-53.304 53.331-53.333h597.336c29.443 0.029 53.304 23.89 53.333 53.331v298.67c0 17.673 14.327 32 32 32s32-14.327 32-32v0-298.667c-0.068-64.774-52.559-117.265-117.327-117.333h-0.007zM338.752 242.752c-17.672 0.001-31.998 14.328-31.998 32 0 2.759 0.349 5.437 1.006 7.992l-0.048-0.222 42.667 170.667c1.508 5.843 4.444 10.866 8.419 14.853l405.332 405.332c22.482 21.472 53.010 34.686 86.624 34.686s64.142-13.215 86.672-34.732l-0.048 0.046c22.129-22.187 35.812-52.808 35.812-86.624s-13.683-64.437-35.815-86.627l-405.33-405.33c-3.982-3.993-9.017-6.934-14.653-8.371l-0.22-0.048-170.667-42.667c-2.314-0.607-4.971-0.956-7.71-0.956-0.015 0-0.030 0-0.045 0h0.002zM410.295 429.065l-27.546-110.345 110.293 27.584 399.083 399.083c10.564 10.601 17.095 25.226 17.095 41.376s-6.531 30.775-17.097 41.378l0.002-0.002c-10.739 10.254-25.321 16.564-41.376 16.564s-30.637-6.31-41.399-16.586l0.023 0.022z" />
<glyph unicode="&#xe919;" glyph-name="edit-alt" d="M88.998-7.002c0 0 0 0-0.001 0-17.673 0-32 14.327-32 32 0 2.995 0.411 5.894 1.181 8.643l-0.054-0.225 64 234.667c1.545 5.591 4.412 10.387 8.25 14.207l576.001 576.001c27.629 27.629 65.797 44.717 107.957 44.717 84.32 0 152.675-68.355 152.675-152.675 0-42.16-17.089-80.329-44.717-107.957v0l-576-576c-3.823-3.837-8.618-6.703-13.984-8.198l-0.224-0.053-234.667-64c-2.523-0.71-5.421-1.121-8.415-1.126h-0.003zM181.623 243.025l-46.997-172.42 172.416 47.040 570.001 569.98c16.049 16.049 25.975 38.22 25.975 62.709 0 48.979-39.705 88.684-88.684 88.684-24.49 0-46.661-9.926-62.709-25.975v0z" />
<glyph unicode="&#xe91a;" glyph-name="edit-o" d="M896 50.752h-384c-17.673 0-32 14.327-32 32s14.327 32 32 32v0h384c17.673 0 32-14.327 32-32s-14.327-32-32-32v0zM128 50.752c-17.672 0.001-31.998 14.328-31.998 32 0 2.759 0.349 5.437 1.006 7.992l-0.048-0.222 42.667 170.667c1.508 5.848 4.448 10.876 8.427 14.866l533.332 533.332c22.482 21.472 53.010 34.686 86.624 34.686s64.142-13.215 86.672-34.732l-0.048 0.046c22.129-22.187 35.812-52.808 35.812-86.624s-13.683-64.437-35.815-86.627l-533.33-533.33c-3.982-3.993-9.017-6.934-14.653-8.371l-0.22-0.048-170.667-42.667c-2.329-0.615-5.004-0.969-7.76-0.969 0 0-0.001 0-0.001 0v0zM199.543 237.065l-27.541-110.345 110.293 27.584 527.091 527.083c10.564 10.601 17.095 25.226 17.095 41.376s-6.531 30.775-17.097 41.378l0.002-0.002c-10.739 10.254-25.321 16.564-41.376 16.564s-30.637-6.31-41.399-16.586l0.023 0.022z" />
<glyph unicode="&#xe91b;" glyph-name="envelope" d="M853.333 74.667h-682.667c-64.774 0.068-117.265 52.559-117.333 117.327v512.007c0.068 64.774 52.559 117.265 117.327 117.333h682.673c64.774-0.068 117.265-52.559 117.333-117.327v-512.007c-0.068-64.774-52.559-117.265-117.327-117.333h-0.007zM170.667 757.333c-29.443-0.029-53.304-23.89-53.333-53.331v-512.003c0.029-29.443 23.89-53.304 53.331-53.333h682.669c29.443 0.029 53.304 23.89 53.333 53.331v512.003c-0.029 29.443-23.89 53.304-53.331 53.333h-0.003zM512 266.667c-6.87 0.005-13.233 2.172-18.447 5.857l0.1-0.067-426.667 298.667c-7.952 5.891-13.051 15.243-13.051 25.786 0 17.673 14.327 32 32 32 6.613 0 12.758-2.006 17.858-5.443l-0.114 0.072 408.32-285.811 408.32 285.811c4.987 3.364 11.131 5.37 17.744 5.37 17.673 0 32-14.327 32-32 0-10.543-5.099-19.895-12.965-25.725l-0.086-0.061-426.667-298.667c-5.113-3.618-11.476-5.785-18.345-5.79h-0.001z" />
<glyph unicode="&#xe91c;" glyph-name="eye" d="M512 74.667c-314.833 0-490.624 344.354-497.958 359.023-2.128 4.17-3.375 9.096-3.375 14.313s1.247 10.142 3.459 14.495l-0.084-0.182c7.334 14.665 183.125 359.019 497.958 359.019s490.624-344.354 497.958-359.023c2.128-4.17 3.375-9.096 3.375-14.313s-1.247-10.142-3.459-14.495l0.084 0.182c-7.334-14.665-183.125-359.019-497.958-359.019zM79.104 448c35.669-62.626 191.603-309.333 432.896-309.333 241.873 0 397.312 246.613 432.896 309.333-35.669 62.626-191.603 309.333-432.896 309.333-241.873 0-397.312-246.613-432.896-309.333zM512 288c-88.366 0-160 71.634-160 160s71.634 160 160 160c88.366 0 160-71.634 160-160v0c-0.099-88.325-71.674-159.9-159.99-160h-0.010zM512 544c-53.019 0-96-42.981-96-96s42.981-96 96-96c53.019 0 96 42.981 96 96v0c-0.061 52.995-43.005 95.939-95.994 96h-0.006z" />
<glyph unicode="&#xe91d;" glyph-name="eye-off" d="M512.521 74.667c-315.354 0-491.145 344.354-498.479 359.023-2.129 4.169-3.377 9.093-3.377 14.308 0 5.542 1.409 10.754 3.887 15.299l-0.084-0.168c56.885 105.056 132.321 192.967 222.741 262.317l1.938 1.427c5.293 4.023 11.993 6.445 19.26 6.445 17.673 0 32-14.327 32-32 0-10.271-4.839-19.411-12.361-25.267l-0.072-0.054c-80.689-61.832-147.21-137.686-196.894-224.421l-1.933-3.663c35.81-62.81 191.689-309.248 432.853-309.248 88.604 1.381 169.854 31.759 234.958 82.031l-0.914-0.679c5.319 4.085 12.070 6.547 19.396 6.547 17.676 0 32.006-14.33 32.006-32.006 0-10.35-4.913-19.553-12.534-25.403l-0.076-0.056c-74.694-57.651-169.243-92.928-271.971-94.43l-0.345-0.004zM889.143 279.893c-17.661 0.016-31.972 14.337-31.972 32 0 7.871 2.841 15.078 7.554 20.651l-0.039-0.047c28.706 33.949 55.226 71.742 78.204 111.826l1.962 3.715c-35.772 62.797-191.646 309.295-432.853 309.295-1.522 0.026-3.317 0.041-5.117 0.041-27.413 0-54.020-3.449-79.411-9.937l2.215 0.48c-2.19-0.535-4.705-0.842-7.292-0.842-17.675 0-32.003 14.328-32.003 32.003 0 15.089 10.442 27.738 24.493 31.117l0.218 0.044c29.102 6.966 62.537 11.005 96.9 11.093h0.060c314.769 0 490.564-344.354 497.894-359.023 2.128-4.171 3.375-9.097 3.375-14.314 0-5.522-1.397-10.717-3.856-15.252l0.084 0.169c-29.043-53.781-60.849-100.17-96.917-142.841l1.003 1.217c-5.89-6.988-14.647-11.396-24.435-11.396-0.023 0-0.045 0-0.068 0h0.004zM508.663 284.809c-88.311 0.047-159.883 71.648-159.883 159.966 0 42.211 16.349 80.604 43.061 109.191l-0.085-0.092c2.479 2.688 5.146 5.376 7.936 7.979 5.701 5.331 13.385 8.604 21.833 8.604 17.673 0 32.001-14.327 32.001-32.001 0-9.226-3.904-17.539-10.15-23.379l-0.018-0.017c-1.626-1.519-3.209-3.085-4.693-4.727-16.269-17.164-26.274-40.407-26.274-65.987 0-53.019 42.981-96 96-96 27.914 0 53.045 11.914 70.587 30.934l0.060 0.066c5.859 6.277 14.181 10.19 23.418 10.19 17.675 0 32.003-14.328 32.003-32.003 0-8.439-3.266-16.114-8.603-21.832l0.017 0.019c-27.975-30.115-67.313-49.342-111.151-50.826l-0.264-0.007c-1.937-0.051-3.874-0.073-5.79-0.073zM981.333-53.333c-0.004 0-0.009 0-0.014 0-8.83 0-16.822 3.588-22.598 9.386l-938.668 938.668c-5.321 5.699-8.588 13.376-8.588 21.815 0 17.673 14.327 32 32 32 8.44 0 16.116-3.267 21.834-8.606l-0.019 0.017 938.667-938.667c5.782-5.789 9.359-13.784 9.359-22.613 0-17.663-14.311-31.984-31.97-32h-0.002z" />
<glyph unicode="&#xe91e;" glyph-name="globe" d="M512-10.667c-253.315 0-458.667 205.352-458.667 458.667s205.352 458.667 458.667 458.667c253.315 0 458.667-205.352 458.667-458.667v0c-0.291-253.198-205.47-458.376-458.639-458.667h-0.028zM512 842.667c-217.968 0-394.667-176.698-394.667-394.667s176.698-394.667 394.667-394.667c217.968 0 394.667 176.698 394.667 394.667v0c-0.243 217.87-176.796 394.424-394.643 394.667h-0.024zM938.667 416h-853.333c-17.673 0-32 14.327-32 32s14.327 32 32 32v0h853.333c17.673 0 32-14.327 32-32s-14.327-32-32-32v0zM512-10.667c0 0 0 0-0.001 0-9.344 0-17.752 4.005-23.602 10.391l-0.022 0.024c-107.981 117.877-175.34 274.524-179.030 446.845l-0.013 0.742c3.425 173.532 70.83 330.686 179.511 449.436l-0.468-0.519c6.005 6.134 14.371 9.938 23.625 9.938s17.619-3.803 23.619-9.932l0.006-0.006c107.979-117.874 175.337-274.516 179.030-446.831l0.013-0.742c-3.425-173.532-70.83-330.686-179.511-449.436l0.468 0.519c-5.87-6.415-14.279-10.424-23.624-10.428h-0.001zM512 825.647c-83.791-102.543-135.601-234.095-138.655-377.645l-0.011-0.667c3.298-143.754 55.074-274.809 139.542-378.085l-0.875 1.104c83.791 102.543 135.601 234.095 138.655 377.645l0.011 0.667c-3.298 143.754-55.074 274.809-139.542 378.085l0.875-1.104z" />
<glyph unicode="&#xe91f;" glyph-name="image" d="M810.667 32h-597.333c-64.774 0.068-117.265 52.559-117.333 117.327v597.34c0.068 64.774 52.559 117.265 117.327 117.333h597.34c64.774-0.068 117.265-52.559 117.333-117.327v-597.34c-0.068-64.774-52.559-117.265-117.327-117.333h-0.007zM213.333 800c-29.443-0.029-53.304-23.89-53.333-53.331v-597.336c0.029-29.443 23.89-53.304 53.331-53.333h597.336c29.443 0.029 53.304 23.89 53.333 53.331v597.336c-0.029 29.443-23.89 53.304-53.331 53.333h-0.003zM362.667 501.333c-53.019 0-96 42.981-96 96s42.981 96 96 96c53.019 0 96-42.981 96-96v0c-0.068-52.992-43.008-95.932-95.994-96h-0.006zM362.667 629.333c-17.673 0-32-14.327-32-32s14.327-32 32-32c17.673 0 32 14.327 32 32v0c-0.027 17.662-14.338 31.973-31.997 32h-0.003zM213.333 32c-17.661 0.016-31.972 14.337-31.972 32 0 8.83 3.576 16.824 9.359 22.614v0l469.333 469.333c5.791 5.789 13.789 9.369 22.624 9.369s16.833-3.58 22.624-9.369l213.333-213.333c6.167-5.845 10.005-14.096 10.005-23.243 0-17.673-14.327-32-32-32-9.152 0-17.407 3.842-23.239 10.001l-0.014 0.015-190.72 190.699-446.72-446.699c-5.771-5.798-13.758-9.387-22.583-9.387-0.011 0-0.021 0-0.032 0h0.002z" />
<glyph unicode="&#xe920;" glyph-name="key" d="M319.689 10.24c-146.084 0.983-264.127 119.633-264.127 265.855 0 146.831 119.030 265.86 265.86 265.86 60.978 0 117.161-20.529 162.015-55.053l-0.625 0.462 389.12 389.12c5.827 6.027 13.985 9.769 23.017 9.769 17.673 0 32-14.327 32-32 0-9.032-3.742-17.19-9.76-23.009l-62.729-62.729 105.387-105.387c5.789-5.791 9.369-13.789 9.369-22.624s-3.58-16.833-9.369-22.624l-149.333-149.333c-5.791-5.789-13.789-9.369-22.624-9.369s-16.833 3.58-22.624 9.369l-105.387 105.387-131.294-131.311c36.051-45.066 57.853-102.897 57.853-165.82 0-147.219-119.345-266.564-266.564-266.564-0.065 0-0.13 0-0.195 0h0.010zM321.481 477.948c-110.935-0.212-200.783-90.191-200.783-201.156 0-111.096 90.061-201.156 201.156-201.156s201.156 90.061 201.156 201.156c0 56.498-23.292 107.555-60.797 144.094l-0.044 0.042c-36.337 35.273-85.973 57.021-140.688 57.028h-0.001zM705.126 619.196l82.752-82.752 104.085 104.085-82.756 82.761z" />
<glyph unicode="&#xe921;" glyph-name="location" d="M512 768c-106.039 0-192-85.961-192-192s85.961-192 192-192c106.039 0 192 85.961 192 192v0c-0.124 105.989-86.011 191.876-191.988 192h-0.012zM512 448c-70.692 0-128 57.308-128 128s57.308 128 128 128c70.692 0 128-57.308 128-128v0c-0.082-70.659-57.341-127.917-127.992-128h-0.008zM512 960c-212.077 0-384-171.923-384-384v0c0-154.825 53.939-198.063 344.538-619.341 8.787-12.553 23.18-20.661 39.467-20.661s30.68 8.107 39.364 20.506l0.103 0.155c290.59 421.278 344.529 464.516 344.529 619.341 0 212.077-171.923 384-384 384v0zM512 12.139c-278.592 402.884-320 434.871-320 563.861 0 176.731 143.269 320 320 320s320-143.269 320-320v0c0-128.981-41.387-160.939-320-563.861z" />
<glyph unicode="&#xe922;" glyph-name="lock" d="M810.667-10.667h-597.333c-64.774 0.068-117.265 52.559-117.333 117.327v298.674c0.068 64.774 52.559 117.265 117.327 117.333h597.34c64.774-0.068 117.265-52.559 117.333-117.327v-298.674c-0.068-64.774-52.559-117.265-117.327-117.333h-0.007zM213.333 458.667c-29.443-0.029-53.304-23.89-53.333-53.331v-298.67c0.029-29.443 23.89-53.304 53.331-53.333h597.336c29.443 0.029 53.304 23.89 53.333 53.331v298.67c-0.029 29.443-23.89 53.304-53.331 53.333h-0.003zM725.333 458.667c-17.673 0-32 14.327-32 32v0 170.667c0 100.148-81.186 181.333-181.333 181.333s-181.333-81.186-181.333-181.333v0-170.667c0-17.673-14.327-32-32-32s-32 14.327-32 32v0 170.667c0 135.494 109.839 245.333 245.333 245.333s245.333-109.839 245.333-245.333v0-170.667c0-17.673-14.327-32-32-32v0z" />
<glyph unicode="&#xe923;" glyph-name="logout" d="M384 32h-170.667c-64.774 0.068-117.265 52.559-117.333 117.327v597.34c0.068 64.774 52.559 117.265 117.327 117.333h170.673c17.673 0 32-14.327 32-32s-14.327-32-32-32v0h-170.667c-29.443-0.029-53.304-23.89-53.333-53.331v-597.336c0.029-29.443 23.89-53.304 53.331-53.333h170.669c17.673 0 32-14.327 32-32s-14.327-32-32-32v0zM682.667 202.667c-17.661 0.016-31.972 14.337-31.972 32 0 8.83 3.576 16.824 9.359 22.614v0l190.72 190.72-190.72 190.72c-5.321 5.699-8.588 13.376-8.588 21.815 0 17.673 14.327 32 32 32 8.44 0 16.116-3.267 21.834-8.606l-0.019 0.017 213.333-213.333c5.789-5.791 9.369-13.789 9.369-22.624s-3.58-16.833-9.369-22.624l-213.333-213.333c-5.775-5.786-13.758-9.365-22.578-9.365-0.013 0-0.025 0-0.038 0h0.002zM896 416h-512c-17.673 0-32 14.327-32 32s14.327 32 32 32v0h512c17.673 0 32-14.327 32-32s-14.327-32-32-32v0z" />
<glyph unicode="&#xe924;" glyph-name="long-arrow-down" d="M760.969 273.92l-14.14 14.144c-4.343 4.343-10.343 7.030-16.971 7.030s-12.627-2.686-16.971-7.030v0l-166.886-167.855v751.791c0 13.255-10.745 24-24 24v0h-19.998c-13.255 0-24-10.745-24-24v0-751.787l-166.891 167.868c-4.343 4.343-10.343 7.030-16.971 7.030s-12.627-2.686-16.971-7.030l-14.14-14.144c-4.343-4.343-7.030-10.343-7.030-16.971s2.686-12.627 7.030-16.971v0l232-232.96c4.343-4.343 10.343-7.030 16.971-7.030s12.627 2.686 16.971 7.030v0l232 232.96c4.344 4.343 7.031 10.343 7.031 16.971s-2.687 12.628-7.031 16.971v0z" />
<glyph unicode="&#xe925;" glyph-name="long-arrow-up" d="M263.031 622.080l14.14-14.144c4.343-4.343 10.343-7.030 16.971-7.030s12.627 2.686 16.971 7.030v0l166.886 167.855v-751.787c0-13.255 10.745-24 24-24v0h20.002c13.255 0 24 10.745 24 24v0 751.77l166.886-167.855c4.343-4.343 10.343-7.030 16.971-7.030s12.627 2.686 16.971 7.030l14.14 14.144c4.343 4.343 7.030 10.343 7.030 16.971s-2.686 12.627-7.030 16.971v0l-232 232.96c-4.343 4.343-10.343 7.030-16.971 7.030s-12.627-2.686-16.971-7.030v0l-231.996-232.964c-4.338-4.342-7.021-10.338-7.021-16.96s2.683-12.618 7.021-16.96v0z" />
<glyph unicode="&#xe926;" glyph-name="paperclip" d="M353.459-23.561c-0.060 0-0.132 0-0.203 0-159.058 0-288 128.942-288 288 0 79.578 32.276 151.619 84.451 203.744l392.109 392.109c36.78 37.238 87.837 60.303 144.281 60.303 111.979 0 202.756-90.777 202.756-202.756 0-56.436-23.058-107.487-60.267-144.246l-0.021-0.020-392.533-392.107c-21.537-20.571-50.783-33.231-82.987-33.231s-61.449 12.66-83.033 33.275l0.046-0.044c-21.252 21.236-34.398 50.583-34.398 82.999s13.146 61.763 34.398 82.999l362.241 361.814c5.79 5.782 13.784 9.357 22.613 9.357 17.675 0 32.003-14.328 32.003-32.003 0-8.845-3.588-16.852-9.389-22.645l-362.24-361.814c-9.66-9.657-15.635-23-15.635-37.739s5.975-28.081 15.635-37.739v0c9.791-9.361 23.092-15.124 37.739-15.124s27.947 5.762 37.759 15.143l-0.021-0.019 392.533 392.107c25.112 25.105 40.645 59.79 40.645 98.103s-15.533 72.999-40.644 98.103v0c-25.462 24.339-60.048 39.32-98.133 39.32s-72.671-14.981-98.187-39.371l0.054 0.051-392.107-392.107c-40.558-40.562-65.644-96.596-65.644-158.49 0-123.795 100.355-224.15 224.15-224.15 61.902 0 117.943 25.092 158.507 65.66l392.107 392.107c5.783 5.744 13.751 9.293 22.548 9.293 17.673 0 32-14.327 32-32 0-8.779-3.535-16.732-9.26-22.514l-392.104-392.104c-51.986-52.061-123.843-84.267-203.223-84.267-0.192 0-0.383 0-0.575 0.001h0.030z" />
<glyph unicode="&#xe927;" glyph-name="pdf" d="M867.729 764.036l-167.765 167.77c-17.341 17.379-41.303 28.146-67.78 28.194h-408.128c-53.012-0.174-95.927-43.153-96-96.172v-831.828c0-53.019 42.981-96 96-96v0h575.889c53.019 0 96 42.981 96 96v0 664.051c-0.051 26.551-10.823 50.576-28.216 67.986l0.001-0.001zM822.541 718.647c3.989-3.954 6.924-8.966 8.35-14.579l0.047-0.218h-190.963v190.963c5.831-1.472 10.843-4.407 14.795-8.394l0.002-0.002zM799.945 0h-575.889c-17.653 0.051-31.949 14.347-32 31.995v831.826c0.051 17.653 14.347 31.949 31.995 32h351.95v-207.957c0-0.034 0-0.075 0-0.115 0-26.441 21.435-47.876 47.876-47.876 0.041 0 0.081 0 0.122 0h207.951v-607.872c-0.051-17.654-14.35-31.952-32-32h-0.005zM755.955 342.332c-26.995 26.594-109.978 18.398-147.371 13.397-42.151 25.859-73.938 65.094-89.75 111.703l-0.434 1.475c9.599 27.701 15.143 59.626 15.143 92.847 0 13.019-0.851 25.838-2.501 38.407l0.159-1.478c-2.824 23.378-22.543 41.318-46.452 41.318-18.937 0-35.246-11.254-42.602-27.44l-0.119-0.293c-1.73-12.813-2.717-27.625-2.717-42.667 0-40.483 7.152-79.295 20.26-115.242l-0.745 2.338c-30.035-72.414-58.26-130.656-89.239-187.173l5.028 10.013c-41.591-21.397-108.177-58.59-117.577-104.781-6.997-33.591 45.79-78.784 106.18-12.8 22.857 26.669 43.599 56.464 61.202 88.239l1.394 2.744c45.021 17.611 99.872 34.135 156.259 46.565l7.709 1.426c37.15-21.758 81.143-36.063 128.123-39.725l1.050-0.066c0.362-0.010 0.788-0.015 1.215-0.015 26.776 0 48.482 21.706 48.482 48.482 0 12.628-4.828 24.128-12.738 32.755l0.033-0.036zM297.643 164.356c18.686 32.169 42.396 59.253 70.38 81.119l0.617 0.464c-44.203-70.579-70.997-82.982-70.997-81.583zM488.004 608.853c17.395 0 15.599-74.987 4.198-95.181-5.211 16.727-8.212 35.958-8.212 55.891 0 13.91 1.462 27.479 4.24 40.561l-0.226-1.271zM431.215 290.317c19.821 35.379 39.221 77.373 55.48 120.9l2.12 6.477c17.881-32.952 41.426-60.582 69.605-82.546l0.582-0.436c-49.206-12.261-91.76-27.458-132.302-46.261l4.515 1.879zM737.954 302.114s-11.597-13.999-86.985 18.197c81.988 6.012 95.386-12.783 86.985-18.185z" />
<glyph unicode="&#xe928;" glyph-name="pin" d="M651.81 279.97l93.065 121.638 52.757-52.757c8.703-8.654 20.699-14.004 33.946-14.004s25.243 5.349 33.948 14.006l113.15 113.15c8.654 8.703 14.004 20.699 14.004 33.946s-5.349 25.243-14.006 33.948l-384.711 384.711c-8.703 8.654-20.699 14.004-33.946 14.004s-25.243-5.349-33.948-14.006l-113.15-113.15c-8.654-8.703-14.004-20.699-14.004-33.946s5.349-25.243 14.006-33.948l52.755-52.755-121.634-93.065c-28.038 9.333-60.319 14.717-93.857 14.717-81.105 0-154.856-31.487-209.696-82.904l0.167 0.155c-5.769-5.802-9.335-13.8-9.335-22.63s3.566-16.828 9.337-22.632l226.299-226.299-170.859-170.859c-0.86-0.895-1.651-1.871-2.357-2.909l-0.050-0.077-33.958-56.559c-1.42-2.341-2.26-5.17-2.26-8.195 0-8.829 7.158-15.987 15.987-15.987 3.025 0 5.854 0.84 8.267 2.3l-0.071-0.040 56.576 33.946c1.149 0.668 2.134 1.467 2.978 2.396l0.009 0.010 170.859 170.859 226.3-226.3c5.802-5.769 13.8-9.335 22.63-9.335s16.828 3.566 22.632 9.337l-0.001-0.001c51.348 54.608 82.898 128.346 82.898 209.454 0 33.516-5.387 65.773-15.343 95.954l0.618-2.163zM110.37 495.241c40.293 26.602 89.729 42.439 142.864 42.439 37.312 0 72.801-7.809 104.92-21.882l-1.682 0.657 203.52 160.533-90.492 90.522 90.517 90.517 362.082-362.082-90.526-90.517-90.522 90.522-160.533-203.814c13.364-30.426 21.142-65.892 21.142-103.175 0-53.145-15.804-102.598-42.968-143.917l0.612 0.991-449.062 449.067z" />
<glyph unicode="&#xe929;" glyph-name="plus" d="M512 117.333c-17.673 0-32 14.327-32 32v0 597.333c0 17.673 14.327 32 32 32s32-14.327 32-32v0-597.333c0-17.673-14.327-32-32-32v0zM810.667 416h-597.333c-17.673 0-32 14.327-32 32s14.327 32 32 32v0h597.333c17.673 0 32-14.327 32-32s-14.327-32-32-32v0z" />
<glyph unicode="&#xe92a;" glyph-name="search" d="M469.333 117.333c-206.186 0-373.333 167.147-373.333 373.333s167.147 373.333 373.333 373.333c206.186 0 373.333-167.147 373.333-373.333v0c-0.243-206.089-167.245-373.091-373.311-373.333h-0.023zM469.333 800c-170.84 0-309.333-138.493-309.333-309.333s138.493-309.333 309.333-309.333c170.84 0 309.333 138.493 309.333 309.333v0c-0.201 170.759-138.574 309.132-309.314 309.333h-0.019zM896 32c-0.004 0-0.009 0-0.014 0-8.83 0-16.822 3.588-22.598 9.386l-185.601 185.601c-5.321 5.699-8.588 13.376-8.588 21.815 0 17.673 14.327 32 32 32 8.44 0 16.116-3.267 21.834-8.606l-0.019 0.017 185.6-185.6c5.782-5.789 9.359-13.784 9.359-22.613 0-17.663-14.311-31.984-31.97-32h-0.002z" />
<glyph unicode="&#xe92b;" glyph-name="send" d="M469.333 373.333c-17.661 0.016-31.972 14.337-31.972 32 0 8.83 3.576 16.824 9.359 22.614v0l469.333 469.333c5.858 6.274 14.178 10.185 23.412 10.185 17.673 0 32-14.327 32-32 0-9.234-3.911-17.554-10.166-23.394l-0.019-0.017-469.333-469.333c-5.771-5.798-13.758-9.387-22.583-9.387-0.011 0-0.021 0-0.032 0h0.002zM640-10.667c-0.002 0-0.005 0-0.008 0-12.966 0-24.131 7.712-29.159 18.798l-0.082 0.201-165.666 372.749-372.753 165.67c-11.28 5.119-18.983 16.283-18.983 29.247 0 13.879 8.83 25.696 21.179 30.139l0.223 0.070 853.333 298.667c3.155 1.143 6.796 1.804 10.592 1.804 17.673 0 32-14.327 32-32 0-3.79-0.659-7.426-1.868-10.799l0.070 0.223-298.667-853.333c-4.349-12.188-15.551-20.861-28.851-21.417l-0.064-0.002zM172.083 572.459l310.251-137.873c7.268-3.287 12.965-8.983 16.17-16.051l0.082-0.201 137.873-310.251 250.027 714.415z" />
<glyph unicode="&#xe92c;" glyph-name="setting" d="M512 288c-88.366 0-160 71.634-160 160s71.634 160 160 160c88.366 0 160-71.634 160-160v0c-0.099-88.325-71.674-159.9-159.99-160h-0.010zM512 544c-53.019 0-96-42.981-96-96s42.981-96 96-96c53.019 0 96 42.981 96 96v0c-0.061 52.995-43.005 95.939-95.994 96h-0.006zM515.413-53.333c-64.774 0.068-117.265 52.559-117.333 117.327v0.007c-0.052 23.039-18.741 41.696-41.788 41.696-10.585 0-20.25-3.935-27.613-10.422l0.046 0.040c-21.545-22.439-51.794-36.38-85.298-36.38-32.32 0-61.61 12.973-82.946 33.997l0.014-0.014c-21.302 21.245-34.482 50.624-34.482 83.083 0 32.375 13.112 61.688 34.316 82.917l-0.001-0.001c8.088 7.27 13.151 17.766 13.151 29.445 0 5.533-1.137 10.801-3.189 15.582l0.098-0.257c-5.957 13.897-19.48 23.475-35.252 23.569h-7.137c-64.801 0-117.333 52.532-117.333 117.333s52.532 117.333 117.333 117.333v0c0.469-0.020 1.020-0.032 1.574-0.032 16.615 0 30.821 10.315 36.563 24.892l0.092 0.266c2.501 5.010 3.965 10.913 3.965 17.159 0 10.512-4.147 20.055-10.894 27.083l0.013-0.013c-22.429 21.55-36.364 51.797-36.364 85.299 0 32.317 12.967 61.605 33.981 82.946l-0.015-0.015c21.127 21.296 50.403 34.479 82.759 34.479 0.092 0 0.184 0 0.276 0h0.050c0.095 0 0.208 0 0.321 0 32.275 0 61.486-13.116 82.593-34.309l0.004-0.004c7.268-8.089 17.764-13.154 29.442-13.154 5.534 0 10.803 1.137 15.585 3.191l-0.257-0.098c2.344 1.050 5.070 1.871 7.916 2.33l0.19 0.025c11.342 6.768 18.831 18.959 18.871 32.903v7.131c0 64.801 52.532 117.333 117.333 117.333s117.333-52.532 117.333-117.333v0c-0.051-0.753-0.079-1.632-0.079-2.518 0-16.044 9.459-29.878 23.104-36.231l0.246-0.103c4.651-2.167 10.098-3.431 15.84-3.431 10.452 0 19.925 4.189 26.832 10.98l-0.005-0.005c21.555 22.42 51.801 36.348 85.3 36.348 32.314 0 61.6-12.96 82.946-33.965l-0.016 0.015c21.302-21.245 34.482-50.624 34.482-83.083 0-32.375-13.112-61.688-34.316-82.917l0.001 0.001c-8.088-7.27-13.151-17.766-13.151-29.445 0-5.533 1.137-10.801 3.189-15.582l-0.098 0.257c1.050-2.344 1.871-5.070 2.33-7.916l0.025-0.19c6.768-11.346 18.964-18.837 32.912-18.876h7.127c64.801 0 117.333-52.532 117.333-117.333s-52.532-117.333-117.333-117.333v0c-0.753 0.051-1.632 0.079-2.518 0.079-16.044 0-29.878-9.459-36.231-23.104l-0.103-0.246-0.145-0.311c-2.087-4.571-3.304-9.915-3.304-15.543 0-10.449 4.193-19.918 10.988-26.817l-0.005 0.005c22.429-21.55 36.364-51.797 36.364-85.299 0-32.317-12.967-61.605-33.981-82.946l0.015 0.015c-21.127-21.296-50.403-34.479-82.759-34.479-0.092 0-0.184 0-0.276 0h-0.046c-0.095 0-0.208 0-0.321 0-32.275 0-61.486 13.116-82.593 34.309l-0.004 0.004c-7.281 8.080-17.782 13.138-29.464 13.138-5.525 0-10.787-1.131-15.565-3.175l0.258 0.098c-13.897-5.96-23.472-19.487-23.56-35.261v-7.136c-0.075-64.773-52.565-117.261-117.331-117.333h-0.007zM356.126 170.24c14.774-0.016 28.796-3.214 41.426-8.944l-0.632 0.257c37.942-14.723 64.485-50.652 65.159-92.867l0.001-0.083v-4.604c0-29.455 23.878-53.333 53.333-53.333s53.333 23.878 53.333 53.333v0 7.253c0.364 56.588 46.322 102.321 102.961 102.321 27.899 0 53.206-11.096 71.749-29.115l-0.024 0.024c10.004-11.125 24.445-18.090 40.512-18.090 14.684 0 28.009 5.817 37.797 15.272l-0.016-0.015c9.654 9.668 15.624 23.017 15.624 37.76s-5.97 28.092-15.625 37.761l0.001-0.001c-19.675 18.789-31.907 45.226-31.907 74.52 0 56.599 45.663 102.534 102.159 102.973h0.042c0.881-0.051 1.911-0.080 2.948-0.080 29.694 0 53.828 23.802 54.365 53.367l0.001 0.050c-0.029 29.443-23.89 53.304-53.331 53.333h-7.256c-41.879 0.099-77.84 25.329-93.61 61.404l-0.257 0.659c-1.215 2.775-2.077 5.992-2.425 9.363l-0.012 0.139c-3.941 10.425-6.222 22.476-6.222 35.060 0 27.857 11.179 53.102 29.296 71.495l-0.012-0.013c11.121 10.006 18.082 24.447 18.082 40.513 0 14.682-5.814 28.006-15.265 37.796l0.015-0.016c-9.668 9.654-23.017 15.624-37.76 15.624s-28.092-5.97-37.761-15.625l0.001 0.001c-18.789-19.671-45.224-31.901-74.516-31.901-56.598 0-102.532 45.659-102.977 102.152v0.042c0.051 0.878 0.080 1.906 0.080 2.94 0 29.689-23.794 53.821-53.353 54.365l-0.051 0.001c-29.443-0.029-53.304-23.89-53.333-53.331v-7.256c-0.099-41.879-25.329-77.84-61.404-93.61l-0.659-0.257c-2.775-1.215-5.992-2.077-9.363-2.425l-0.139-0.012c-10.422-3.937-22.47-6.216-35.051-6.216-27.859 0-53.107 11.177-71.505 29.29l0.013-0.013c-10.011 11.113-24.452 18.070-40.517 18.070-14.676 0-27.996-5.805-37.789-15.244l0.017 0.016c-9.654-9.668-15.624-23.017-15.624-37.76s5.97-28.092 15.625-37.761l-0.001 0.001c19.64-18.833 31.845-45.289 31.845-74.594 0-14.883-3.148-29.032-8.814-41.815l0.261 0.659c-14.725-37.943-50.658-64.485-92.876-65.155l-0.082-0.001h-4.604c-29.455 0-53.333-23.878-53.333-53.333s23.878-53.333 53.333-53.333v0h7.253c56.588-0.364 102.321-46.322 102.321-102.961 0-27.899-11.096-53.206-29.115-71.749l0.024 0.024c-11.121-10.006-18.082-24.447-18.082-40.513 0-14.682 5.814-28.006 15.265-37.796l-0.015 0.016c9.668-9.654 23.017-15.624 37.76-15.624s28.092 5.97 37.761 15.625l-0.001-0.001c19.111 19.445 45.579 31.606 74.889 31.965l0.068 0.001zM827.733 320v0z" />
<glyph unicode="&#xe92d;" glyph-name="smile" d="M512-10.667c-253.315 0-458.667 205.352-458.667 458.667s205.352 458.667 458.667 458.667c253.315 0 458.667-205.352 458.667-458.667v0c-0.291-253.198-205.47-458.376-458.639-458.667h-0.028zM512 842.667c-217.968 0-394.667-176.698-394.667-394.667s176.698-394.667 394.667-394.667c217.968 0 394.667 176.698 394.667 394.667v0c-0.243 217.87-176.796 394.424-394.643 394.667h-0.024zM512 245.333c-79.406 2.562-149.554 40.097-195.873 97.628l-0.394 0.505c-3.916 5.248-6.27 11.862-6.27 19.026 0 17.673 14.327 32 32 32 10.313 0 19.486-4.879 25.339-12.454l0.055-0.074c35.031-42.309 86.616-69.847 144.69-72.614l0.453-0.017c58.531 2.784 110.119 30.327 144.879 72.31l0.269 0.334c5.902 7.776 15.15 12.745 25.559 12.745 17.674 0 32.001-14.327 32.001-32.001 0-7.264-2.421-13.964-6.499-19.335l0.058 0.079c-46.712-58.036-116.861-95.572-195.85-98.123l-0.417-0.011zM384.427 544c-0.009 0-0.020 0-0.030 0-17.711 0-32.081 14.304-32.187 31.99v0.010c0 0.051 0 0.111 0 0.171 0 17.566 14.229 31.808 31.789 31.829h0.429c17.673 0 32-14.327 32-32s-14.327-32-32-32v0zM640.427 544c-0.009 0-0.020 0-0.030 0-17.711 0-32.081 14.304-32.187 31.99v0.010c0 0.051 0 0.111 0 0.171 0 17.566 14.229 31.808 31.789 31.829h0.429c17.673 0 32-14.327 32-32s-14.327-32-32-32v0z" />
<glyph unicode="&#xe92e;" glyph-name="thumbs-down" d="M547.917-10.667c-88.323 0.107-159.893 71.677-160 159.99v138.677h-209.493c-6.571 0.034-12.999 0.51-19.294 1.401l0.751-0.087c-56.806 8.805-99.779 57.361-99.779 115.954 0 6.236 0.487 12.359 1.424 18.332l-0.086-0.662 58.88 384.043c9.070 56.671 57.512 99.483 115.993 99.686h598.477c65.729-0.238 119.988-49.041 128.776-112.383l0.078-0.684c0.175-1.206 0.274-2.598 0.274-4.013 0-0.089 0-0.178-0.001-0.267v0.014-298.667c0-0.048 0-0.104 0-0.161 0-1.457-0.106-2.89-0.31-4.291l0.019 0.159c-8.825-64.169-63.299-113.065-129.192-113.065-0.886 0-1.77 0.009-2.652 0.026l0.132-0.002h-92.54l-162.21-365.001c-5.099-11.287-16.258-18.999-29.218-18.999-0.011 0-0.021 0-0.032 0h0.002zM419.917 352c17.673 0 32-14.327 32-32v0-170.667c0.067-45.962 32.359-84.362 75.489-93.822l0.637-0.117 158.541 356.727v430.545h-449.293c-26.786-0.198-48.999-19.531-53.658-44.997l-0.051-0.337-58.88-384.064c-0.381-2.394-0.599-5.155-0.599-7.967 0-26.617 19.51-48.678 45.009-52.662l0.3-0.039c2.334-0.39 5.024-0.613 7.766-0.613 0.288 0 0.575 0.002 0.862 0.007l-0.043-0.001zM750.583 437.333h81.92c0.374-0.008 0.816-0.012 1.258-0.012 33.044 0 60.513 23.875 66.095 55.316l0.060 0.405v293.914c-5.086 31.759-32.289 55.734-65.092 55.734-0.627 0-1.253-0.009-1.876-0.026l0.092 0.002h-82.458z" />
<glyph unicode="&#xe92f;" glyph-name="thumbs-up" d="M787.665-10.667h-610.249c-64.774 0.068-117.265 52.559-117.333 117.327v298.674c0.075 64.771 52.562 117.258 117.326 117.333h107.216l162.21 365.001c5.099 11.287 16.258 18.999 29.218 18.999 0.011 0 0.021 0 0.032 0h-0.002c88.323-0.107 159.893-71.677 160-159.99v-138.677h209.493c0.306 0.003 0.667 0.005 1.029 0.005 64.778 0 117.291-52.513 117.291-117.291 0-6.23-0.486-12.346-1.421-18.313l0.085 0.662-58.88-384.043c-9.070-56.671-57.512-99.483-115.993-99.686h-0.022zM337.417 53.333h449.916c0.016 0 0.036 0 0.055 0 26.7 0 48.847 19.493 52.985 45.025l0.041 0.309 58.88 384.064c0.381 2.394 0.599 5.155 0.599 7.967 0 26.617-19.51 48.678-45.009 52.662l-0.3 0.039c-2.373 0.389-5.107 0.611-7.894 0.611-0.243 0-0.485-0.002-0.728-0.005h-241.883c-17.673 0-32 14.327-32 32v0 170.662c-0.067 45.961-32.357 84.36-75.485 93.822l-0.637 0.117-158.541-356.732zM177.417 458.667c-29.443-0.029-53.304-23.89-53.333-53.331v-298.67c0.029-29.443 23.89-53.304 53.331-53.333h96.003v405.333z" />
<glyph unicode="&#xe930;" glyph-name="trash" d="M896 672h-768c-17.673 0-32 14.327-32 32s14.327 32 32 32v0h768c17.673 0 32-14.327 32-32s-14.327-32-32-32v0zM725.333-10.667h-426.667c-64.774 0.068-117.265 52.559-117.333 117.327v597.34c0 17.673 14.327 32 32 32s32-14.327 32-32v0-597.333c0.029-29.443 23.89-53.304 53.331-53.333h426.669c29.443 0.029 53.304 23.89 53.333 53.331v597.336c0 17.673 14.327 32 32 32s32-14.327 32-32v0-597.333c-0.068-64.774-52.559-117.265-117.327-117.333h-0.007zM682.667 672c-17.673 0-32 14.327-32 32v0 85.333c-0.029 29.443-23.89 53.304-53.331 53.333h-170.669c-29.443-0.029-53.304-23.89-53.333-53.331v-85.336c0-17.673-14.327-32-32-32s-32 14.327-32 32v0 85.333c0.068 64.774 52.559 117.265 117.327 117.333h170.673c64.774-0.068 117.265-52.559 117.333-117.327v-85.34c0-17.673-14.327-32-32-32v0zM426.667 202.667c-17.673 0-32 14.327-32 32v0 256c0 17.673 14.327 32 32 32s32-14.327 32-32v0-256c0-17.673-14.327-32-32-32v0zM597.333 202.667c-17.673 0-32 14.327-32 32v0 256c0 17.673 14.327 32 32 32s32-14.327 32-32v0-256c0-17.673-14.327-32-32-32v0z" />
<glyph unicode="&#xe931;" glyph-name="user" d="M853.333 32c-17.673 0-32 14.327-32 32v0 85.333c-0.092 76.546-62.12 138.575-138.658 138.667h-341.342c-76.546-0.092-138.575-62.12-138.667-138.658v-85.342c0-17.673-14.327-32-32-32s-32 14.327-32 32v0 85.333c0.131 111.877 90.79 202.535 202.654 202.667h341.346c111.877-0.131 202.535-90.79 202.667-202.654v-85.346c0-17.673-14.327-32-32-32v0zM512 458.667c-111.93 0-202.667 90.737-202.667 202.667s90.737 202.667 202.667 202.667c111.93 0 202.667-90.737 202.667-202.667v0c-0.131-111.877-90.79-202.535-202.654-202.667h-0.013zM512 800c-76.583 0-138.667-62.083-138.667-138.667s62.083-138.667 138.667-138.667c76.583 0 138.667 62.083 138.667 138.667v0c-0.092 76.546-62.12 138.575-138.658 138.667h-0.009z" />
<glyph unicode="&#xe932;" glyph-name="users1" horiz-adv-x="1451" d="M1233.067 521.143c0.455-0.004 0.993-0.006 1.532-0.006 100.994 0 182.865 81.871 182.865 182.865s-81.871 182.865-182.865 182.865c-100.994 0-182.865-81.871-182.865-182.865 0-0.001 0-0.002 0-0.002v0c-0.001-0.24-0.002-0.524-0.002-0.808 0-100.292 81.1-181.642 181.296-182.049h0.039zM1233.067 813.713c0.273 0.002 0.595 0.004 0.917 0.004 60.595 0 109.717-49.122 109.717-109.717s-49.122-109.717-109.717-109.717c-60.595 0-109.717 49.122-109.717 109.717 0 0 0 0 0 0.001v0c-0.001 0.127-0.001 0.277-0.001 0.428 0 60.186 48.653 109.009 108.774 109.285h0.026zM725.333 448c0.634-0.006 1.383-0.009 2.133-0.009 141.385 0 256 114.615 256 256s-114.615 256-256 256c-141.382 0-255.995-114.61-256-255.991v-0.001c-0.002-0.354-0.003-0.773-0.003-1.192 0-140.397 113.547-254.274 253.818-254.808h0.051zM725.333 886.857c0.455 0.004 0.993 0.006 1.532 0.006 100.994 0 182.865-81.871 182.865-182.865s-81.871-182.865-182.865-182.865c-100.994 0-182.865 81.871-182.865 182.865 0 0.001 0 0.002 0 0.002v0c0 0.154-0.001 0.337-0.001 0.519 0 100.35 81.064 181.766 181.28 182.337h0.055zM1278.4 448h-90.667c-34.893-0.079-67.194-11.108-93.669-29.829l0.51 0.342c21.767-15.056 40.662-31.927 57.275-50.851l0.3-0.349c10.475 4.715 22.7 7.486 35.567 7.543h90.688c55.748-2.961 99.83-48.886 99.83-105.106 0-1.62-0.037-3.232-0.109-4.834l0.008 0.227c0-20.030 16.237-36.267 36.267-36.267s36.267 16.237 36.267 36.267v0c0.043 1.466 0.068 3.191 0.068 4.921 0 96.32-76.493 174.774-172.046 177.928l-0.289 0.008zM217.6 521.143c0.455-0.004 0.993-0.006 1.532-0.006 100.994 0 182.865 81.871 182.865 182.865s-81.871 182.865-182.865 182.865c-100.994 0-182.865-81.871-182.865-182.865 0-0.001 0-0.002 0-0.002v0c-0.001-0.24-0.002-0.524-0.002-0.808 0-100.292 81.1-181.642 181.296-182.049h0.039zM217.6 813.713c0.273 0.002 0.595 0.004 0.917 0.004 60.595 0 109.717-49.122 109.717-109.717s-49.122-109.717-109.717-109.717c-60.595 0-109.717 49.122-109.717 109.717 0 0 0 0 0 0.001v0c-0.001 0.127-0.001 0.277-0.001 0.428 0 60.186 48.653 109.009 108.774 109.285h0.026zM906.893 402.283c-75.708 0-94.519-27.43-181.559-27.43s-105.852 27.43-181.559 27.43c-1.313 0.025-2.862 0.039-4.414 0.039-84.52 0-159.212-42.082-204.265-106.436l-0.532-0.803c-27.831-41.128-44.429-91.836-44.429-146.42 0-0.193 0-0.386 0.001-0.58v0.030-102.4c-0.001-0.127-0.001-0.277-0.001-0.428 0-60.186 48.653-109.009 108.774-109.285h652.826c60.148 0.276 108.801 49.099 108.801 109.285 0 0.15 0 0.301-0.001 0.451v-0.023 102.4c0 0.163 0.001 0.356 0.001 0.549 0 54.585-16.598 105.293-45.023 147.352l0.594-0.932c-45.586 65.157-120.277 107.239-204.798 107.239-1.552 0-3.101-0.014-4.646-0.042l0.232 0.003zM1088 45.713c0-0.013 0-0.028 0-0.044 0-20.082-16.206-36.379-36.253-36.526h-652.814c-20.061 0.147-36.267 16.444-36.267 36.526 0 0.015 0 0.031 0 0.046v-0.002 102.4c0 0.081 0 0.178 0 0.274 0 39.416 11.938 76.044 32.395 106.466l-0.433-0.684c32.435 45.619 85.1 75.021 144.631 75.021 1.503 0 3.002-0.019 4.496-0.056l-0.221 0.004c62.106 0 84.318-27.43 181.786-27.43s119.68 27.43 181.559 27.43c1.273 0.033 2.772 0.052 4.275 0.052 59.531 0 112.196-29.402 144.264-74.477l0.368-0.544c20.024-29.738 31.962-66.366 31.962-105.782 0-0.096 0-0.193 0-0.289v0.015-102.4zM356.092 418.513c-25.989 18.318-58.272 29.333-93.12 29.487h-90.705c-95.842-3.162-172.335-81.616-172.335-177.936 0-1.73 0.025-3.455 0.074-5.173l-0.006 0.253c0-0.013 0-0.028 0-0.044 0-20.082 16.206-36.379 36.253-36.526h0.014c20.061 0.147 36.267 16.444 36.267 36.526 0 0.015 0 0.031 0 0.046v-0.002c-0.064 1.375-0.101 2.986-0.101 4.606 0 56.222 44.084 102.148 99.572 105.096l0.262 0.011h90.667c12.888-0.057 25.114-2.828 36.156-7.771l-0.568 0.227c16.958 19.214 35.846 36.079 56.548 50.522l1.026 0.678z" />
<glyph unicode="&#xe933;" glyph-name="video" d="M512 86.187c-30.481 0-299.917 0.585-375.206 20.71-50.909 14.398-90.3 53.389-104.999 102.991l-0.273 1.073c-13.28 68.867-20.877 148.070-20.877 229.048 0 2.583 0.008 5.164 0.023 7.743l-0.002-0.396c-0.008 1.677-0.013 3.662-0.013 5.647 0 79.719 7.328 157.726 21.346 233.386l-1.208-7.848c13.091 53.359 53.112 94.999 104.489 110.167l1.073 0.272c75.729 20.25 345.165 20.834 375.646 20.834s299.563-0.521 374.519-18.833c52.352-14.869 92.528-55.843 106.007-107.594l0.233-1.053c0.166-0.687 0.333-1.395 0.457-2.082 12.818-67.823 20.149-145.843 20.149-225.575 0-2.721-0.009-5.44-0.026-8.157l0.002 0.418c0.004-1.188 0.006-2.593 0.006-3.999 0-79.698-7.325-157.686-21.34-233.326l1.208 7.847c-13.091-53.359-53.112-94.999-104.489-110.167l-1.073-0.272c-75.738-20.25-345.173-20.834-375.654-20.834zM512 745.813c-13.239 0.241-28.855 0.378-44.503 0.378-110.725 0-219.844-6.875-326.954-20.221l12.793 1.3c-29.635-8.749-52.301-32.139-59.871-61.586l-0.131-0.601c-11.885-63.616-18.683-136.807-18.683-211.584 0-2.175 0.006-4.35 0.017-6.522l-0.001 0.336c-0.015-2.273-0.024-4.96-0.024-7.649 0-75.729 6.967-149.831 20.295-221.699l-1.148 7.452c9.231-27.76 31.378-48.921 59.126-56.603l0.608-0.144c94.273-12.007 203.346-18.86 314.018-18.86 15.631 0 31.231 0.137 46.797 0.409l-2.339-0.032c13.239-0.241 28.857-0.378 44.507-0.378 110.723 0 219.841 6.875 326.949 20.221l-12.787-1.299c29.635 8.749 52.301 32.139 59.871 61.586l0.131 0.601c11.88 63.617 18.675 136.809 18.675 211.588 0 1.588-0.003 3.175-0.009 4.761l0.001-0.247c0.015 2.237 0.023 4.882 0.023 7.53 0 75.348-6.894 149.087-20.084 220.619l1.138-7.434c-8.022 29.727-30.681 52.773-59.572 61.201l-0.613 0.153c-94.201 10.865-203.358 17.064-313.962 17.064-15.565 0-31.102-0.123-46.609-0.367l2.342 0.029zM416 275.627c-17.673 0-32 14.327-32 32v0 279.040c0.003 17.671 14.329 31.994 32 31.994 5.815 0 11.268-1.551 15.967-4.262l-0.155 0.082 245.333-139.52c9.73-5.612 16.174-15.96 16.174-27.812s-6.444-22.2-16.019-27.73l-0.154-0.082-245.333-139.52c-4.541-2.635-9.991-4.19-15.805-4.19-0.002 0-0.005 0-0.007 0v0zM448 531.627v-168.96l148.604 84.48z" />
<glyph unicode="&#xe934;" glyph-name="address-book" d="M936 640c13.238 0.041 23.959 10.762 24 23.996v80.004c-0.041 13.238-10.762 23.959-23.996 24h-40.004v64c-0.068 70.665-57.335 127.932-127.993 128h-576.007c-70.665-0.068-127.932-57.335-128-127.993v-768.007c0.068-70.665 57.335-127.932 127.993-128h576.007c70.665 0.068 127.932 57.335 128 127.993v64.007h40c13.238 0.041 23.959 10.762 24 23.996v80.004c-0.041 13.238-10.762 23.959-23.996 24h-40.004v128h40c13.238 0.041 23.959 10.762 24 23.996v80.004c-0.041 13.238-10.762 23.959-23.996 24h-40.004v128zM832 64c-0.106-35.303-28.697-63.894-63.99-64h-576.010c-35.303 0.106-63.894 28.697-64 63.99v768.010c0.106 35.303 28.697 63.894 63.99 64h576.010c35.303-0.106 63.894-28.697 64-63.99v-0.010zM480 416c88.366 0 160 71.634 160 160s-71.634 160-160 160c-88.366 0-160-71.634-160-160v0c0-0.013 0-0.028 0-0.043 0-88.342 71.615-159.957 159.957-159.957 0.015 0 0.030 0 0.045 0h-0.002zM480 672c53.019 0 96-42.981 96-96s-42.981-96-96-96c-53.019 0-96 42.981-96 96v0c0.015 53.014 42.987 95.985 95.999 96h0.001zM573.602 384c-39.002 0-48.798-13.999-93.602-13.999s-54.613 13.999-93.602 13.999c-0.799 0.018-1.74 0.028-2.684 0.028-43.275 0-81.527-21.51-104.646-54.422l-0.271-0.408c-14.278-20.966-22.797-46.85-22.797-74.724 0-0.097 0-0.194 0-0.291v0.015-78.199c0.027-8.826 7.174-15.973 15.997-16h32.003c8.826 0.027 15.973 7.174 16 15.997v78.202c0.010 14.628 4.494 28.207 12.158 39.445l-0.156-0.243c11.914 16.114 30.847 26.447 52.194 26.447 0.851 0 1.698-0.016 2.541-0.049l-0.121 0.004c26.45-6.115 58.412-11.071 91.001-13.822l2.601-0.177c35.25 2.971 67.21 7.925 98.406 14.901l-4.804-0.903c0.646 0.023 1.405 0.036 2.168 0.036 21.42 0 40.429-10.323 52.323-26.266l0.123-0.172c7.508-10.995 11.992-24.574 12.002-39.2v-78.202c0.027-8.826 7.174-15.973 15.997-16h32.003c8.826 0.027 15.973 7.174 16 15.997v78.202c0 0.080 0 0.175 0 0.269 0 27.876-8.521 53.762-23.1 75.196l0.299-0.466c-23.753 33.339-62.275 54.82-105.814 54.82-0.78 0-1.558-0.007-2.335-0.021l0.117 0.002z" />
<glyph unicode="&#xe935;" glyph-name="canteen-menu" d="M638.997 656.213c0.349-8.611 7.353-15.475 15.988-15.599h32.012c0.038 0 0.083-0.001 0.129-0.001 8.726 0 15.808 7.037 15.88 15.746v0.007q0 0.324 0 0.649c-2.495 74.886-33.827 142-83.182 190.98l-0.018 0.017c-25.376 25.155-41.728 59.378-43.79 97.402l-0.016 0.377c-0.804 8.010-7.511 14.212-15.665 14.212-0.118 0-0.235-0.001-0.352-0.004h0.017l-32-0.201c-8.776-0.079-15.86-7.212-15.86-15.999 0-0.048 0-0.096 0.001-0.145v0.007l0.060-1.28c2.846-54.759 26.164-103.578 62.38-139.376l0.020-0.020c38.135-37.578 62.38-89.162 64.386-146.402l0.010-0.371zM416 656.213c0.349-8.611 7.353-15.475 15.988-15.599h32.012c0.038 0 0.083-0.001 0.129-0.001 8.726 0 15.808 7.037 15.88 15.746v0.007q0 0.324 0 0.649c-2.503 74.879-33.837 141.985-83.191 190.958l-0.018 0.018c-25.261 25.213-41.529 59.428-43.581 97.423l-0.016 0.377c-0.825 8.016-7.543 14.216-15.708 14.216-0.173 0-0.346-0.003-0.517-0.008l0.025 0.001-32-0.201c-8.776-0.079-15.86-7.212-15.86-15.999 0-0.048 0-0.096 0.001-0.145v0.007l0.060-1.28c2.949-54.739 26.243-103.527 62.386-139.382l0.014-0.014c38.122-37.587 62.363-89.165 64.386-146.399l0.010-0.374zM960 576h-896c-35.346 0-64-28.654-64-64v0c0.054-188.349 101.934-352.891 253.581-441.573l2.419-1.307v-69.12c0-35.346 28.654-64 64-64v0h384c35.346 0 64 28.654 64 64v0 69.12c154.066 89.989 255.946 254.531 256 442.872v0.008c0 35.346-28.654 64-64 64v0zM704 106.005v-106.005h-384v105.997c-264.678 153.34-256 371.558-256 405.999h896c0-34.918 6.737-253.777-256-405.999z" />
<glyph unicode="&#xe936;" glyph-name="chats" horiz-adv-x="1152" d="M1024 640h-192v192c-0.068 70.665-57.335 127.932-127.993 128h-576.007c-70.665-0.068-127.932-57.335-128-127.993v-320.007c0.068-70.665 57.335-127.932 127.993-128h64.007v-104c0-0.020 0-0.044 0-0.068 0-13.217 10.715-23.932 23.932-23.932 0.024 0 0.048 0 0.072 0h-0.004c0.044 0 0.096 0 0.149 0 5.316 0 10.21 1.806 14.102 4.839l-0.051-0.038 153.801 87.002v-155.802c0.068-70.665 57.335-127.932 127.993-128h192.007l217.801-123.2c3.916-2.941 8.842-4.733 14.184-4.8h0.016c0.020 0 0.044 0 0.068 0 13.217 0 23.932 10.715 23.932 23.932 0 0.024 0 0.048 0 0.072v-0.004 104h64c70.665 0.068 127.932 57.335 128 127.993v320.007c-0.068 70.665-57.335 127.932-127.993 128h-0.007zM128 448c-35.303 0.106-63.894 28.697-64 63.99v320.010c0.106 35.303 28.697 63.894 63.99 64h576.010c35.303-0.106 63.894-28.697 64-63.99v-320.010c-0.106-35.303-28.697-63.894-63.99-64h-272.808l-14.601-8.401-160.602-90.799v99.2zM1088 192c-0.106-35.303-28.697-63.894-63.99-64h-128.010v-99.2l-175.002 99.2h-208.998c-35.303 0.106-63.894 28.697-64 63.99v192.010h256c70.665 0.068 127.932 57.335 128 127.993v64.007h192c35.303-0.106 63.894-28.697 64-63.99v-0.010z" />
<glyph unicode="&#xe937;" glyph-name="calendar" d="M864 832h-96v104c0 13.255-10.745 24-24 24v0h-16c-13.255 0-24-10.745-24-24v0-104h-384v104c0 13.255-10.745 24-24 24v0h-16c-13.255 0-24-10.745-24-24v0-104h-96c-53.019 0-96-42.981-96-96v0-704c0-53.019 42.981-96 96-96v0h704c53.019 0 96 42.981 96 96v0 704c0 53.019-42.981 96-96 96v0zM160 768h704c17.664-0.022 31.978-14.336 32-31.998v-96.002h-768v96c0.022 17.664 14.336 31.978 31.998 32h0.002zM864 0h-704c-17.664 0.022-31.978 14.336-32 31.998v544.002h768v-544c-0.022-17.664-14.336-31.978-31.998-32h-0.002z" />
<glyph unicode="&#xe938;" glyph-name="user-settings" horiz-adv-x="1280" d="M1256.597 243.401l-32.998 18.999c0.764 7.674 1.2 16.586 1.2 25.6s-0.436 17.926-1.287 26.717l0.088-1.117 33.199 18.999c13.953 8.090 23.187 22.955 23.187 39.976 0 5.010-0.8 9.833-2.279 14.348l0.092-0.326c-15.598 49.395-40.78 91.887-73.578 127.21l0.191-0.208c-8.456 9.303-20.605 15.121-34.113 15.121-8.584 0-16.619-2.349-23.498-6.439l0.212 0.117-32.998-18.999c-12.828 9.316-27.403 17.861-42.793 24.938l-1.606 0.662v38.003c0 0.061 0 0.133 0 0.205 0 22.055-15.434 40.505-36.091 45.138l-0.309 0.058c-21.997 5.149-47.254 8.1-73.201 8.1s-51.204-2.952-75.455-8.537l2.254 0.437c-20.975-4.757-36.399-23.24-36.399-45.327 0-0.026 0-0.053 0-0.079v0.004-37.999c-16.996-7.739-31.571-16.284-45.152-26.119l0.753 0.519-32.998 18.999c-6.668 3.98-14.706 6.333-23.294 6.333-13.508 0-25.656-5.822-34.072-15.093l-0.034-0.038c-32.415-35.152-57.562-77.537-72.72-124.416l-0.667-2.385c-1.35-4.169-2.128-8.965-2.128-13.943 0-17.193 9.282-32.219 23.109-40.338l0.22-0.119 32.998-18.999c-0.764-7.674-1.2-16.586-1.2-25.6s0.436-17.926 1.287-26.717l-0.088 1.117-33.199-18.999c-13.913-8.287-23.089-23.252-23.089-40.359 0-4.935 0.764-9.692 2.179-14.159l-0.091 0.332c15.598-49.395 40.78-91.887 73.578-127.21l-0.191 0.208c8.526-9.233 20.692-14.995 34.204-14.995 8.538 0 16.539 2.301 23.416 6.316l-0.221-0.119 32.998 18.999c12.828-9.316 27.403-17.861 42.793-24.938l1.606-0.662v-37.999c0-0.061 0-0.133 0-0.205 0-22.055 15.434-40.505 36.091-45.138l0.309-0.058c21.999-5.085 47.259-8 73.201-8s51.202 2.915 75.473 8.435l-2.272-0.435c20.975 4.757 36.399 23.24 36.399 45.327 0 0.026 0 0.053 0 0.079v-0.004 37.999c16.996 7.739 31.571 16.284 45.152 26.119l-0.753-0.519 32.998-18.999c6.655-3.888 14.652-6.183 23.185-6.183 13.513 0 25.681 5.756 34.186 14.95l0.028 0.031c32.415 35.152 57.562 77.537 72.72 124.416l0.667 2.385c1.353 4.186 2.133 9.002 2.133 14 0 17.239-9.279 32.311-23.116 40.493l-0.218 0.12zM1153.399 229.001l58.799-34.001c-11.251-30.343-26.686-56.527-45.928-79.404l0.33 0.403-58.799 34.001c-27.53-27.461-62.018-47.959-100.591-58.62l-1.609-0.379v-68.002c-13.71-2.481-29.489-3.9-45.6-3.9s-31.89 1.419-47.22 4.138l1.62-0.238v68.002c-40.146 11.158-74.609 31.635-102.215 59.015l0.016-0.015-58.799-34.001c-18.866 22.488-34.296 48.661-44.996 77.149l-0.606 1.84 58.799 34.001c-4.813 17.703-7.578 38.028-7.578 58.999s2.765 41.297 7.951 60.632l-0.373-1.632-58.799 34.027c11.303 30.333 26.732 56.51 45.936 79.416l-0.338-0.415 58.799-34.001c27.53 27.461 62.018 47.959 100.591 58.62l1.609 0.379v67.985c13.709 2.386 29.495 3.75 45.6 3.75s31.891-1.364 47.25-3.983l-1.65 0.233v-68.002c40.157-11.123 74.627-31.606 102.212-59.012l-0.012 0.012 58.799 34.001c18.866-22.487 34.296-48.658 44.996-77.145l0.606-1.84-58.799-34.001c4.814-17.704 7.58-38.032 7.58-59.006s-2.766-41.301-7.952-60.638l0.373 1.632zM960 416.998c-71.244 0-128.998-57.755-128.998-128.998s57.755-128.998 128.998-128.998c71.244 0 128.998 57.755 128.998 128.998v0c-0.107 71.201-57.798 128.892-128.988 128.998h-0.010zM960 222.997c-35.898 0-64.998 29.101-64.998 64.998s29.101 64.998 64.998 64.998c35.896 0 64.996-29.098 64.998-64.994v0c-0.073-35.868-29.13-64.926-64.991-64.998h-0.007zM448 448c141.385 0 256 114.615 256 256s-114.615 256-256 256c-141.385 0-256-114.615-256-256v0c0-141.385 114.615-256 256-256v0zM448 896c106.039 0 192-85.961 192-192s-85.961-192-192-192c-106.039 0-192 85.961-192 192v0c0.175 105.969 86.032 191.826 191.983 192h0.017zM96 0c-17.652 0.053-31.947 14.348-32 31.995v83.205c0.078 113.077 91.724 204.722 204.793 204.8h0.007c39.202 0 78.199-32 179.2-32 40.453 0.425 79.272 6.755 115.848 18.166l-2.85-0.766c0.94 24.64 3.953 47.998 8.883 70.639l-0.482-2.641c-36.101-13.238-77.784-21.050-121.245-21.396l-0.154-0.001c-94.199 0-121.6 32-179.2 32-148.438-0.039-268.761-120.361-268.8-268.796v-83.204c0.015-53.014 42.987-95.985 95.999-96h674.002c-33.209 18.172-61.803 39.435-87.084 64.080l0.083-0.080z" />
<glyph unicode="&#xe939;" glyph-name="question-circle" d="M512 274.581c-31.925 0-57.805-25.88-57.805-57.805s25.88-57.805 57.805-57.805c31.925 0 57.805 25.88 57.805 57.805v0c0 31.925-25.88 57.805-57.805 57.805v0zM527.834 324.13h-33.033c-13.68 0.002-24.77 11.092-24.772 24.772v0 0.785c0 145.225 159.876 131.341 159.876 221.747 0 41.323-36.668 83.017-118.588 83.017-2.842 0.211-6.157 0.331-9.5 0.331-46.65 0-87.833-23.41-112.441-59.123l-0.299-0.459c-4.565-5.732-11.545-9.374-19.374-9.374-5.306 0-10.221 1.673-14.248 4.519l0.077-0.052-27.115 18.889c-6.459 4.529-10.629 11.94-10.629 20.325 0 5.726 1.945 10.998 5.21 15.191l-0.042-0.055c39.67 56.316 104.418 92.655 177.653 92.655 3.766 0 7.51-0.096 11.229-0.286l-0.521 0.021c108.015 0 201.165-61.44 201.165-165.598 0-139.179-159.876-131.819-159.876-221.747v-0.785c-0.002-13.68-11.092-24.77-24.772-24.772v0zM512 893.935c246.283 0 445.935-199.652 445.935-445.935s-199.652-445.935-445.935-445.935c-246.283 0-445.935 199.652-445.935 445.935v0c0.031 246.27 199.664 445.903 445.931 445.935h0.004zM512 960c-282.77 0-512-229.23-512-512s229.23-512 512-512c282.77 0 512 229.23 512 512v0c-0.044 282.752-229.248 511.956-511.996 512h-0.004z" />
<glyph unicode="&#xe93a;" glyph-name="info-circle" d="M512 893.935c246.283 0 445.935-199.652 445.935-445.935s-199.652-445.935-445.935-445.935c-246.283 0-445.935 199.652-445.935 445.935v0c0.031 246.27 199.664 445.903 445.931 445.935h0.004zM512 960c-282.77 0-512-229.23-512-512s229.23-512 512-512c282.77 0 512 229.23 512 512v0c-0.044 282.752-229.248 511.956-511.996 512h-0.004zM437.679 249.805h24.772v247.744h-24.772c-13.68 0.002-24.77 11.092-24.772 24.772v0 16.516c0.002 13.68 11.092 24.77 24.772 24.772h99.098c13.68-0.002 24.77-11.092 24.772-24.772v0-289.033h24.772c13.68-0.002 24.77-11.092 24.772-24.772v0-16.516c-0.002-13.68-11.092-24.77-24.772-24.772h-148.642c-13.68 0.002-24.77 11.092-24.772 24.772v0 16.516c0.002 13.68 11.092 24.77 24.772 24.772v0zM512 745.289c-36.487 0-66.065-29.578-66.065-66.065s29.578-66.065 66.065-66.065c36.487 0 66.065 29.578 66.065 66.065v0c0 36.487-29.578 66.065-66.065 66.065v0z" />
<glyph unicode="&#xe93b;" glyph-name="briefcase" d="M928 704h-224v144c0 0.004 0 0.008 0 0.013 0 26.503-21.485 47.987-47.987 47.987-0.005 0-0.009 0-0.014 0h-287.999c-0.004 0-0.008 0-0.013 0-26.503 0-47.987-21.485-47.987-47.987 0-0.005 0-0.009 0-0.014v0.001-144h-224c-53.019 0-96-42.981-96-96v0-512c0-53.019 42.981-96 96-96v0h832c53.019 0 96 42.981 96 96v0 512c0 53.019-42.981 96-96 96v0zM384 832h256v-128h-256zM960 96c-0.024-17.663-14.337-31.976-31.998-32h-832.002c-17.663 0.024-31.976 14.337-32 31.998v288.002h320v-80c0.007-26.507 21.493-47.993 47.999-48h160.001c26.507 0.007 47.993 21.493 48 47.999v80.001h320zM448 320v64h128v-64zM960 448h-896v160c0.024 17.663 14.337 31.976 31.998 32h832.002c17.663-0.024 31.976-14.337 32-31.998v-0.002z" />
<glyph unicode="&#xe93c;" glyph-name="menu" d="M64 810.667h896c34.986-0.881 63.119-29.014 63.998-63.917l0.002-0.083c-0.881-34.986-29.014-63.119-63.917-63.998l-0.083-0.002h-896c-34.986 0.881-63.119 29.014-63.998 63.917l-0.002 0.083c0.881 34.986 29.014 63.119 63.917 63.998l0.083 0.002zM64 512h896c34.986-0.881 63.119-29.014 63.998-63.917l0.002-0.083c-0.881-34.986-29.014-63.119-63.917-63.998l-0.083-0.002h-896c-34.986 0.881-63.119 29.014-63.998 63.917l-0.002 0.083c0.881 34.986 29.014 63.119 63.917 63.998l0.083 0.002zM64 213.333h896c34.986-0.881 63.119-29.014 63.998-63.917l0.002-0.083c-0.881-34.986-29.014-63.119-63.917-63.998l-0.083-0.002h-896c-34.986 0.881-63.119 29.014-63.998 63.917l-0.002 0.083c0.881 34.986 29.014 63.119 63.917 63.998l0.083 0.002z" />
<glyph unicode="&#xe93d;" glyph-name="user-profile" d="M691.2 384c-57.399 0-85.001-32-179.2-32s-121.6 32-179.2 32c-148.438-0.039-268.761-120.361-268.8-268.796v-83.204c0.015-53.014 42.987-95.985 95.999-96h704.001c53.014 0.015 95.985 42.987 96 95.999v83.201c-0.039 148.438-120.361 268.761-268.796 268.8h-0.004zM896 32c-0.053-17.652-14.348-31.947-31.995-32h-704.005c-17.652 0.053-31.947 14.348-32 31.995v83.205c0.078 113.077 91.724 204.722 204.793 204.8h0.007c39.202 0 78.199-32 179.2-32 100.8 0 140.002 32 179.2 32 113.077-0.078 204.722-91.724 204.8-204.793v-0.007zM512 448c141.385 0 256 114.615 256 256s-114.615 256-256 256c-141.385 0-256-114.615-256-256v0c0-141.385 114.615-256 256-256v0zM512 896c106.039 0 192-85.961 192-192s-85.961-192-192-192c-106.039 0-192 85.961-192 192v0c0.175 105.969 86.032 191.826 191.983 192h0.017z" />
<glyph unicode="&#xe93e;" glyph-name="news" d="M994.044 718.025h-228.049v178.027c-0.032 16.545-13.446 29.947-29.994 29.956h-705.989c-16.574 0-30.009-13.434-30.012-30.007v0-776.004c0.104-82.802 67.201-149.899 149.993-150.003h724.004c82.802 0.104 149.899 67.201 150.003 149.993v568.027c0 0 0 0 0 0 0 16.556-13.405 29.98-29.953 30.012h-0.003zM150.003 30.016c-49.669 0.063-89.917 40.311-89.98 89.974v745.994h646.003c0-792.943-0.375-748.838 0.7-760.188 2.795-28.849 13.396-54.785 29.638-76.208l-0.271 0.372zM964.028 119.996c-0.063-49.669-40.311-89.917-89.974-89.98h-18.024c-49.669 0.063-89.917 40.311-89.98 89.974v537.849h197.973zM580.762 781.598h-427.908c-15.833 0-28.668-12.835-28.668-28.668s12.835-28.668 28.668-28.668h427.908c15.833 0 28.668 12.835 28.668 28.668s-12.835 28.668-28.668 28.668v0zM580.762 653.158h-427.908c-15.833 0-28.668-12.835-28.668-28.668s12.835-28.668 28.668-28.668v0h427.908c0.028 0 0.061 0 0.094 0 15.833 0 28.668 12.835 28.668 28.668 0 15.8-12.782 28.614-28.569 28.668h-0.005zM580.762 171.738h-427.908c-15.833 0-28.668-12.835-28.668-28.668s12.835-28.668 28.668-28.668v0h427.908c15.833 0 28.668 12.835 28.668 28.668s-12.835 28.668-28.668 28.668v0zM602.709 518.43h-213.956c-15.833 0-28.668-12.835-28.668-28.668v0 0-213.952c0-15.833 12.835-28.668 28.668-28.668v0h213.956c15.833 0 28.668 12.835 28.668 28.668v0 0 213.952c0 15.833-12.835 28.668-28.668 28.668v0zM574.042 304.478h-156.621v156.621h156.621zM152.853 419.307h91.435c15.833 0 28.668 12.835 28.668 28.668s-12.835 28.668-28.668 28.668h-91.435c-15.833 0-28.668-12.835-28.668-28.668s12.835-28.668 28.668-28.668v0zM152.853 290.987h91.435c0.439-0.024 0.953-0.038 1.47-0.038 15.833 0 28.668 12.835 28.668 28.668 0 15.478-12.266 28.091-27.608 28.648l-0.051 0.001q-1.237 0.055-2.479 0h-91.435c-0.439 0.024-0.953 0.038-1.47 0.038-15.833 0-28.668-12.835-28.668-28.668 0-15.478 12.266-28.091 27.608-28.648l0.051-0.001q1.242-0.064 2.479 0z" />
<glyph unicode="&#xe93f;" glyph-name="office-location" d="M512 768c-106.039 0-192-85.961-192-192s85.961-192 192-192c106.039 0 192 85.961 192 192v0c-0.124 105.989-86.011 191.876-191.988 192h-0.012zM512 448c-70.692 0-128 57.308-128 128s57.308 128 128 128c70.692 0 128-57.308 128-128v0c-0.082-70.659-57.341-127.917-127.992-128h-0.008zM512 960c-212.077 0-384-171.923-384-384v0c0-154.825 53.939-198.063 344.538-619.341 8.787-12.553 23.18-20.661 39.467-20.661s30.68 8.107 39.364 20.506l0.103 0.155c290.59 421.278 344.529 464.516 344.529 619.341 0 212.077-171.923 384-384 384v0zM512 12.139c-278.592 402.884-320 434.871-320 563.861 0 176.731 143.269 320 320 320s320-143.269 320-320v0c0-128.981-41.387-160.939-320-563.861z" />
<glyph unicode="&#xe940;" glyph-name="settings" d="M998.204 355.183l-69.939 40.38c2.099 15.746 3.298 33.952 3.298 52.437s-1.198 36.691-3.521 54.543l0.224-2.106 69.939 40.38c15.51 9.031 25.77 25.58 25.77 44.525 0 5.153-0.759 10.129-2.171 14.821l0.094-0.364c-25.29 83.341-67.782 154.983-123.618 213.842l0.221-0.235c-9.404 9.918-22.675 16.089-37.388 16.089-9.485 0-18.37-2.565-26.001-7.038l0.243 0.131-69.837-40.316c-26.244 20.157-56.136 37.754-88.089 51.467l-2.71 1.034v80.674c-0.011 24.228-16.748 44.543-39.289 50.027l-0.352 0.072c-36.97 9.107-79.413 14.332-123.076 14.332s-86.107-5.224-126.738-15.082l3.662 0.751c-22.899-5.557-39.639-25.882-39.642-50.116v0-80.657c-34.667-14.746-64.561-32.344-91.8-53.232l0.992 0.731-69.837 40.316c-7.388 4.343-16.275 6.908-25.76 6.908-14.712 0-27.983-6.171-37.365-16.067l-0.022-0.023c-55.609-58.624-98.097-130.266-122.396-209.845l-0.988-3.761c-1.319-4.33-2.078-9.306-2.078-14.46 0-18.944 10.258-35.491 25.522-44.391l0.244-0.131 69.939-40.38c-2.099-15.746-3.298-33.952-3.298-52.437s1.198-36.691 3.521-54.543l-0.224 2.106-69.939-40.38c-15.51-9.031-25.77-25.58-25.77-44.525 0-5.153 0.759-10.129 2.171-14.821l-0.094 0.364c25.29-83.341 67.782-154.983 123.617-213.841l-0.221 0.235c9.404-9.919 22.677-16.092 37.39-16.092 9.484 0 18.368 2.564 25.999 7.037l-0.243-0.131 69.837 40.316c26.246-20.15 56.141-37.741 88.097-51.446l2.71-1.034v-80.674c0.002-24.232 16.737-44.556 39.281-50.044l0.352-0.072c36.97-9.107 79.413-14.332 123.076-14.332s86.107 5.224 126.738 15.082l-3.662-0.751c22.899 5.557 39.639 25.882 39.642 50.116v0 80.657c34.667 14.741 64.562 32.331 91.802 53.212l-0.995-0.732 69.837-40.316c7.388-4.342 16.273-6.907 25.757-6.907 14.714 0 27.986 6.173 37.368 16.070l0.022 0.023c55.614 58.624 98.106 130.266 122.408 209.845l0.988 3.761c1.318 4.329 2.077 9.305 2.077 14.458 0 18.945-10.26 35.494-25.526 44.393l-0.244 0.131zM857.771 139.716l-99.319 57.348c-41.66-39.948-92.82-70.323-149.735-87.384l-2.623-0.675v-114.697c-28.282-6.105-60.773-9.602-94.080-9.602s-65.798 3.496-97.125 10.142l3.045-0.541v114.701c-59.538 17.739-110.698 48.114-152.488 88.184l0.13-0.124-99.341-57.348c-40.827 45.57-72.977 99.868-93.255 159.646l-0.961 3.264 99.362 57.348c-6.681 26.433-10.514 56.778-10.514 88.019s3.834 61.586 11.056 90.591l-0.542-2.571-99.362 57.353c21.246 63.047 53.395 117.351 94.605 163.372l-0.388-0.441 99.319-57.391c41.647 39.973 92.812 70.359 149.739 87.407l2.62 0.674v114.697c28.282 6.115 60.772 9.618 94.080 9.618s65.798-3.502 97.122-10.159l-3.042 0.541v-114.697c59.546-17.722 110.711-48.108 152.485-88.202l-0.127 0.121 99.319 57.395c40.829-45.581 72.984-99.887 93.271-159.674l0.962-3.266-99.362-57.348c6.681-26.433 10.515-56.778 10.515-88.019s-3.834-61.586-11.057-90.591l0.542 2.572 99.362-57.348c-21.24-63.040-53.39-117.337-94.603-163.345l0.387 0.439zM512 653.892c-113.714 0-205.897-92.183-205.897-205.897s92.183-205.897 205.897-205.897c113.714 0 205.897 92.183 205.897 205.897 0 0.002 0 0.003 0 0.005v0c-0.133 113.659-92.237 205.761-205.884 205.892h-0.013zM512 310.733c-75.808 0-137.263 61.455-137.263 137.263s61.455 137.263 137.263 137.263c75.807 0 137.26-61.452 137.263-137.258v0c-0.087-75.773-61.49-137.176-137.255-137.263h-0.008z" />
</font>
</defs>
</svg>
